Статистика раздачи
Размер:  743 MB   |    Зарегистрирован:  3 месяца 6 дней   |    Скачан:  0 раз

Полного источника не было: Никогда

 
   
 
 

lopster ®

Пол:
Не указан
Стаж:
3 месяца 6 дней
Сообщений:
612

Крым
Год выхода: 2017
Выпущено: Россия / Пиманов и партнеры
Жанр: драма, боевик
Продолжительность: 01:36:12-Режиссер:
Алексей Пиманов-В ролях:
Роман Курцын (Саша), Евгения Лапова (Алена), Павел Крайнов (Микола), Павел Трубинер (Алексей), Борис Щербаков (полковник), Елена Котельникова (мама Саши), Геннадий Яковлев (отец Саши), Алексей Комашко (Петр), Никита Зверев (Львовянин), Игорь Буяновер (Грицюк), Илья Домбровский (Богдан)-О фильме:
История о любви, вере и чести, о силе духа и настоящей дружбе на фоне реальных событий крымской весны 2014 года.
Судьба свела их в Крыму близ древнего города Мангуп-Кале. Это была любовь с первого взгляда… В непростые дни исторических перемен они должны сохранить свою жизнь и любовь.
Качество: WEB-DLRip
Формат: AVI
Видео: 688x288 (2.39:1), 25 fps, XviD build 73 ~942 kbps avg, 0.19 bit/pixel
Аудио: 48 kHz, MPEG Layer 3, 2 ch, ~128.00 kbps avg-Скачать сэмпл-

MediaInfo

Код:Format : AVI
Format/Info : Audio Video Interleave
File size : 743 MiB
Duration : 1 h 36 min
Overall bit rate : 1 080 kb/s
Writing application : VirtualDubMod 1.5.10.3 | www.virtualdub-fr.org || (build 2550/release)
Writing library : VirtualDubMod build 2550/release
Video
ID : 0
Format : MPEG-4 Visual
Format profile : Advanced Simple@L5
Format settings : BVOP1
Format settings, BVOP : 1
Format settings, QPel : No
Format settings, GMC : No warppoints
Format settings, Matrix : Default (H.263)
Codec ID : XVID
Codec ID/Hint : XviD
Duration : 1 h 36 min
Bit rate : 943 kb/s
Width : 688 pixels
Height : 288 pixels
Display aspect ratio : 2.40:1
Frame rate : 25.000 FPS
Color space : YUV
Chroma subsampling : 4:2:0
Bit depth : 8 bits
Scan type : Progressive
Compression mode : Lossy
Bits/(Pixel*Frame) : 0.190
Stream size : 649 MiB (87%)
Writing library : XviD 73
Audio
ID : 1
Format : MPEG Audio
Format version : Version 1
Format profile : Layer 3
Codec ID : 55
Codec ID/Hint : MP3
Duration : 1 h 36 min
Bit rate mode : Constant
Bit rate : 128 kb/s
Channel(s) : 2 channels
Sampling rate : 48.0 kHz
Compression mode : Lossy
Stream size : 88.1 MiB (12%)
Alignment : Aligned on interleaves
Interleave, duration : 40 ms (1.00 video frame)
Interleave, preload duratio : 504 ms
Writing library : LAME3.99r
Encoding settings : -m s -V 4 -q 2 -lowpass 17 -b 128

Скриншоты

[cybertorrent.ru].t434.torrent 
Торрент: Зарегистрирован [ 2018-02-15 15:48 ] · 74F9D168192AC4B5DBA1EF9B67CAA6069BF5F0FD

Скачать .torrent

Скачать

15 KB

Статус: проверено
Скачан: 0 раз
Размер: 743 MB
Профиль [ЛС]
Показать сообщения:    

Текущее время: 21-Май 18:53

Часовой пояс: UTC ± 0



Вы не можете начинать темы
Вы не можете отвечать на сообщения
Вы не можете редактировать свои сообщения
Вы не можете удалять свои сообщения
Вы не можете голосовать в опросах
Вы не можете прикреплять файлы к сообщениям
Вы можете скачивать файлы