BitTorrent клиенты



(Rock) [CD] Инкогнито - Наши голоса - 2018, FLAC (tracks+.cue), lossless

Ответить на тему
Статистика раздачи
Размер:  330 MB   |    Зарегистрирован:  8 месяцев 9 дней   |    Скачан:  2 раза

Полного источника не было: 2 дня 18 часов

 
   
 
 
Автор Сообщение

mafil ®

Пол: Не указан

Стаж: 11 месяцев 23 дня

Сообщений: 534

Создавать темы 14-Июн-2018 12:14

[Цитировать]

Инкогнито / Наши голоса
Жанр: Rock
Носитель: CD
Год издания: 2018
Издатель (лейбл): ООО Вектор
Номер по каталогу: VEK-CD-63
Страна исполнителя (группы): Russia
Аудиокодек: FLAC (*.flac)
Тип рипа: tracks+.cue
Битрейт аудио: lossless
Продолжительность: 43:36
Источник (релизер): Собственный CD
Наличие сканов в содержимом раздачи: да


01. Бесконечность
02. Наши голоса
03. Кипит л...ь
04. Саванна
05. Одной масти
06. Герда
07. Говорили долго
08. Курт Кобейн
09. Птица
10. Верой и правдой
11. Молчание
12. Чучело
13. Миноносец

Лог создания рипа

Exact Audio Copy V1.3 from 2. September 2016
Отчёт EAC об извлечении, выполненном 10. июня 2018, 10:00
Unknown Artist / Unknown Title
Дисковод: Optiarc DVD RW AD-7241S Adapter: 1 ID: 0
Режим чтения : Достоверность
Использование точного потока : Да
Отключение кэша аудио : Да
Использование указателей C2 : Нет
Коррекция смещения при чтении : 48
Способность читать области Lead-in и Lead-out : Нет
Заполнение пропущенных сэмплов тишиной : Да
Удаление блоков с тишиной в начале и конце : Нет
При вычислениях CRC использовались нулевые сэмплы : Да
Интерфейс : Встроенный Win32-интерфейс для Win NT/2000
Обработка зазоров : Добавлено к предыдущему треку
Выходной формат : Пользовательский кодировщик
Выбранный битрейт : 1024 kBit/s
Качество : Высокий
Добавление ID3-тега : Нет
Утилита сжатия : C:\Program Files (x86)\Exact Audio Copy\FLAC\FLAC.EXE
Дополнительные параметры : -6 -V -T "ARTIST=%artist%" -T "TITLE=%title%" -T "ALBUM=%albumtitle%" -T "DATE=%year%" -T "TRACKNUMBER=%tracknr%" -T "GENRE=%genre%" -T "COMMENT=%comment%" -T "BAND=%albuminterpret%" -T "ALBUMARTIST=%albuminterpret%" -T "COMPOSER=%composer%" %haslyrics%--tag-from-file=LYRICS="%lyricsfile%"%haslyrics% -T "DISCNUMBER=%cdnumber%" -T "TOTALDISCS=%totalcds%" -T "TOTALTRACKS=%numtracks%" %hascover%--picture="%coverfile%"%hascover% %source% -o %dest%
TOC извлечённого CD
Трек | Старт | Длительность | Начальный сектор | Конечный сектор
---------------------------------------------------------------------
1 | 0:00.00 | 3:32.35 | 0 | 15934
2 | 3:32.35 | 3:20.18 | 15935 | 30952
3 | 6:52.53 | 3:37.09 | 30953 | 47236
4 | 10:29.62 | 2:56.46 | 47237 | 60482
5 | 13:26.33 | 3:32.27 | 60483 | 76409
6 | 16:58.60 | 3:24.55 | 76410 | 91764
7 | 20:23.40 | 2:56.11 | 91765 | 104975
8 | 23:19.51 | 3:11.57 | 104976 | 119357
9 | 26:31.33 | 4:18.54 | 119358 | 138761
10 | 30:50.12 | 3:41.31 | 138762 | 155367
11 | 34:31.43 | 2:50.73 | 155368 | 168190
12 | 37:22.41 | 3:33.05 | 168191 | 184170
13 | 40:55.46 | 2:40.42 | 184171 | 196212
Трек 1
Имя файла G:\Загрузки\Инкогнито - Наши голоса (2018) (CD)\01 Трек01.wav
Длина предзазора 0:00:02.00
Пиковый уровень 96.3 %
Скорость извлечения 1.7 X
Качество трека 99.9 %
CRC теста 92384792
CRC копии C8A8A7B2
Копирование... OK
Трек 2
Имя файла G:\Загрузки\Инкогнито - Наши голоса (2018) (CD)\02 Трек02.wav
Длина предзазора 0:00:02.00
Пиковый уровень 96.3 %
Скорость извлечения 2.2 X
Качество трека 99.9 %
CRC теста A3FE621D
CRC копии A3FE621D
Копирование... OK
Трек 3
Имя файла G:\Загрузки\Инкогнито - Наши голоса (2018) (CD)\03 Трек03.wav
Длина предзазора 0:00:02.00
Пиковый уровень 96.3 %
Скорость извлечения 2.5 X
Качество трека 99.9 %
CRC теста BF4C67E6
CRC копии BF4C67E6
Копирование... OK
Трек 4
Имя файла G:\Загрузки\Инкогнито - Наши голоса (2018) (CD)\04 Трек04.wav
Длина предзазора 0:00:02.00
Пиковый уровень 96.4 %
Скорость извлечения 2.5 X
Качество трека 99.9 %
CRC теста F9ADD9B1
CRC копии F9ADD9B1
Копирование... OK
Трек 5
Имя файла G:\Загрузки\Инкогнито - Наши голоса (2018) (CD)\05 Трек05.wav
Длина предзазора 0:00:02.00
Пиковый уровень 96.3 %
Скорость извлечения 3.2 X
Качество трека 100.0 %
CRC теста 800E77F0
CRC копии 800E77F0
Копирование... OK
Трек 6
Имя файла G:\Загрузки\Инкогнито - Наши голоса (2018) (CD)\06 Трек06.wav
Длина предзазора 0:00:02.00
Пиковый уровень 96.4 %
Скорость извлечения 3.3 X
Качество трека 100.0 %
CRC теста CCFBE8DC
CRC копии CCFBE8DC
Копирование... OK
Трек 7
Имя файла G:\Загрузки\Инкогнито - Наши голоса (2018) (CD)\07 Трек07.wav
Длина предзазора 0:00:02.00
Пиковый уровень 96.4 %
Скорость извлечения 3.3 X
Качество трека 100.0 %
CRC теста 4A50D44D
CRC копии 4A50D44D
Копирование... OK
Трек 8
Имя файла G:\Загрузки\Инкогнито - Наши голоса (2018) (CD)\08 Трек08.wav
Длина предзазора 0:00:02.00
Пиковый уровень 96.3 %
Скорость извлечения 3.5 X
Качество трека 100.0 %
CRC теста D5D99889
CRC копии D5D99889
Копирование... OK
Трек 9
Имя файла G:\Загрузки\Инкогнито - Наши голоса (2018) (CD)\09 Трек09.wav
Длина предзазора 0:00:02.00
Пиковый уровень 96.0 %
Скорость извлечения 3.9 X
Качество трека 100.0 %
CRC теста 92D82ED5
CRC копии 92D82ED5
Копирование... OK
Трек 10
Имя файла G:\Загрузки\Инкогнито - Наши голоса (2018) (CD)\10 Трек10.wav
Длина предзазора 0:00:02.00
Пиковый уровень 96.3 %
Скорость извлечения 3.4 X
Качество трека 99.9 %
CRC теста A8AB9E3A
CRC копии A8AB9E3A
Копирование... OK
Трек 11
Имя файла G:\Загрузки\Инкогнито - Наши голоса (2018) (CD)\11 Трек11.wav
Длина предзазора 0:00:02.00
Пиковый уровень 96.3 %
Скорость извлечения 3.2 X
Качество трека 99.9 %
CRC теста 44852903
CRC копии 44852903
Копирование... OK
Трек 12
Имя файла G:\Загрузки\Инкогнито - Наши голоса (2018) (CD)\12 Трек12.wav
Длина предзазора 0:00:01.74
Подозрительная позиция 0:02:54
Пиковый уровень 96.3 %
Скорость извлечения 1.3 X
Качество трека 99.3 %
CRC теста BD61939D
CRC копии B0CBF2B8
Копирование завершено
Трек 13
Имя файла G:\Загрузки\Инкогнито - Наши голоса (2018) (CD)\13 Трек13.wav
Длина предзазора 0:00:02.00
Подозрительная позиция 0:00:09
Подозрительная позиция 0:01:05
Подозрительная позиция 0:01:45
Пиковый уровень 96.3 %
Скорость извлечения 0.7 X
Качество трека 98.8 %
CRC теста DC3CFBE7
CRC копии 103EB6D7
Копирование завершено
Были ошибки
Конец отчёта
---- CUETools DB Plugin V2.1.6
[CTDB TOCID: re92lZUZd9Gqn.J0GkGEaZe8QWI-] disk not present in database
Submit result: insufficient quality

Содержание индексной карты (.CUE)

REM GENRE Other
REM DATE 2018
REM COMMENT "CUE Corrector v. 8.3.2 / b. 824 (Oct. 12, 2017)"
PERFORMER "Various Artists"
TITLE "Наши голоса"
FILE "01. Бесконечность.flac" WAVE
TRACK 01 AUDIO
TITLE Бесконечность
PERFORMER Инкогнито
INDEX 01 00:00:00
FILE "02. Наши голоса.flac" WAVE
TRACK 02 AUDIO
TITLE "Наши голоса"
PERFORMER Инкогнито
INDEX 01 00:00:00
FILE "03. Кипит л...ь.flac" WAVE
TRACK 03 AUDIO
TITLE "Кипит л...ь"
PERFORMER Инкогнито
INDEX 01 00:00:00
FILE "04. Саванна.flac" WAVE
TRACK 04 AUDIO
TITLE Саванна
PERFORMER Инкогнито
INDEX 01 00:00:00
FILE "05. Одной масти.flac" WAVE
TRACK 05 AUDIO
TITLE "Одной масти"
PERFORMER Инкогнито
INDEX 01 00:00:00
FILE "06. Герда.flac" WAVE
TRACK 06 AUDIO
TITLE Герда
PERFORMER Инкогнито
INDEX 01 00:00:00
FILE "07. Говорили долго.flac" WAVE
TRACK 07 AUDIO
TITLE "Говорили долго"
PERFORMER "Инкогнито & Алёна Романова"
INDEX 01 00:00:00
FILE "08. Курт Кобейн.flac" WAVE
TRACK 08 AUDIO
TITLE "Курт Кобейн"
PERFORMER Инкогнито
INDEX 01 00:00:00
FILE "09. Птица.flac" WAVE
TRACK 09 AUDIO
TITLE Птица
PERFORMER Инкогнито
INDEX 01 00:00:00
FILE "10. Верой и правдой.flac" WAVE
TRACK 10 AUDIO
TITLE "Верой и правдой"
PERFORMER Инкогнито
INDEX 01 00:00:00
FILE "11. Молчание.flac" WAVE
TRACK 11 AUDIO
TITLE Молчание
PERFORMER Инкогнито
INDEX 01 00:00:00
FILE "12. Чучело.flac" WAVE
TRACK 12 AUDIO
TITLE Чучело
PERFORMER Инкогнито
INDEX 01 00:00:00
FILE "13. Миноносец.flac" WAVE
TRACK 13 AUDIO
TITLE Миноносец
PERFORMER Инкогнито
INDEX 01 00:00:00

auCDtect

CUE Corrector v. 8.3.2 / b. 824 (Oct. 12, 2017)
————————————————————————————————————————————————————————————————————————
Various Artists / Наши голоса
CUE file: Инкогнито - Наши голоса.cue
Audio files:
01. Бесконечность.flac [03:32.467; FLAC • 1052 kbps • 16 bit \ 44100 Hz • stereo; 26.65 MB (27 948 422 B)]
02. Наши голоса.flac [03:20.240; FLAC • 1018 kbps • 16 bit \ 44100 Hz • stereo; 24.30 MB (25 483 211 B)]
03. Кипит л...ь.flac [03:37.120; FLAC • 1036 kbps • 16 bit \ 44100 Hz • stereo; 26.82 MB (28 125 155 B)]
04. Саванна.flac [02:56.613; FLAC • 1027 kbps • 16 bit \ 44100 Hz • stereo; 21.63 MB (22 684 299 B)]
05. Одной масти.flac [03:32.360; FLAC • 1002 kbps • 16 bit \ 44100 Hz • stereo; 25.38 MB (26 609 072 B)]
06. Герда.flac [03:24.733; FLAC • 1050 kbps • 16 bit \ 44100 Hz • stereo; 25.63 MB (26 874 170 B)]
07. Говорили долго.flac [02:56.147; FLAC • 944 kbps • 16 bit \ 44100 Hz • stereo; 19.84 MB (20 802 615 B)]
08. Курт Кобейн.flac [03:11.760; FLAC • 1038 kbps • 16 bit \ 44100 Hz • stereo; 23.73 MB (24 882 731 B)]
09. Птица.flac [04:18.720; FLAC • 1066 kbps • 16 bit \ 44100 Hz • stereo; 32.88 MB (34 477 931 B)]
10. Верой и правдой.flac [03:41.413; FLAC • 1056 kbps • 16 bit \ 44100 Hz • stereo; 27.89 MB (29 240 535 B)]
11. Молчание.flac [02:50.973; FLAC • 1032 kbps • 16 bit \ 44100 Hz • stereo; 21.04 MB (22 063 315 B)]
12. Чучело.flac [03:33.067; FLAC • 1053 kbps • 16 bit \ 44100 Hz • stereo; 26.77 MB (28 069 534 B)]
13. Миноносец.flac [02:40.560; FLAC • 1026 kbps • 16 bit \ 44100 Hz • stereo; 19.66 MB (20 611 654 B)]
Accuracy: -m0
Track 01 - Бесконечность (Инкогнито) - 100% CDDA [03:32:35]
Track 02 - Наши голоса (Инкогнито) - 100% CDDA [03:20:18]
Track 03 - Кипит л...ь (Инкогнито) - 100% CDDA [03:37:09]
Track 04 - Саванна (Инкогнито) - 76% CDDA [02:56:46]
Track 05 - Одной масти (Инкогнито) - 94% CDDA [03:32:27]
Track 06 - Герда (Инкогнито) - 43% CDDA [03:24:55]
Track 07 - Говорили долго (Инкогнито & Алёна Романова) - 100% CDDA [02:56:11]
Track 08 - Курт Кобейн (Инкогнито) - 100% CDDA [03:11:57]
Track 09 - Птица (Инкогнито) - 93% MPEG [04:18:54]
Track 10 - Верой и правдой (Инкогнито) - 100% CDDA [03:41:31]
Track 11 - Молчание (Инкогнито) - 98% MPEG [02:50:73]
Track 12 - Чучело (Инкогнито) - 94% CDDA [03:33:05]
Track 13 - Миноносец (Инкогнито) - 100% CDDA [02:40:42]
————— Summary: —————
These tracks looks like CDDA with probability 100%.
————————————————————————————————————————————————————————————————————————
ANALYZER:
auCDtect: CD records authenticity detector, version 0.8.2
Copyright (c) 2004 Oleg Berngardt. All rights reserved.
Copyright (c) 2004 Alexander Djourik. All rights reserved.
Time elapsed: 2 m 22 s
Log created at June 07, 2018 21:17:00
=== 824F29814A396801136B8CA0BCE75F5AF197826828083396CC45638094DFCE54 ===
[cybertorrent.ru].t43428.torrent 
Торрент: Зарегистрирован [ 2018-06-14 12:15 ] · 7BD84DB7A4E3F59DF408675E57E06AB03CF13E14

Скачать .torrent

Скачать

15 KB

Статус: проверено
Скачан: 2 раз
Размер: 330 MB
terms.php
[Профиль] [ЛС]
Показать сообщения:    
Ответить на тему

Текущее время: 23-Фев 15:29

Часовой пояс: UTC + 3



Вы не можете начинать темы
Вы не можете отвечать на сообщения
Вы не можете редактировать свои сообщения
Вы не можете удалять свои сообщения
Вы не можете голосовать в опросах
Вы не можете прикреплять файлы к сообщениям
Вы можете скачивать файлы