Статистика раздачи
Размер:  2,68 GB   |    Зарегистрирован:  7 месяцев 27 дней   |    Скачан:  0 раз
Сидов:  11  [  0 KB/s  ]  
 
   
 
 

soda ®

Пол:
Не указан
Стаж:
9 месяцев 5 дней
Сообщений:
184

Переворот по инструкции 107
Жанр: детектив, драма, шпионский фильм
Год выпуска: 1982
Продолжительность: 01:25:25
Перевод: многоголосый советский дубляж
Режиссёр: Захид Сабитов, Георгий Бзаров
В ролях: Леонид Сенченко, Сайрам Исаева, Улугбек Хамраев, Наби Рахимов, Сергей Пижель, Рустам Сагдуллаев, Георгий Шевцов, Мурад Раджабов, Эдуард Марцевич, Антра Лиедскалныня, Исамат Эргашев
Описание: В одной из стран мусульманского Востока, богатой нефтью, к власти приходят демократические силы. Не желая терять контроль над черным золотом, одна из западных стран совершает здесь переворот, пытаясь представить его, как "освобождение от власти Кремля". Разрабатывается план, жертвами которого становятся прогрессивный журналист Хайдар и советский врач Халима Атаджанова, работающая в местном госпитале Красного Креста. Власти объявляют Хайдара агентом Москвы, а Халиму - резидентом советской разведки. Журналисту удается скрыться, Халима попадает в руки контрреволюционеров. Чтобы добиться от женщины признания в шпионской деятельности, начинается охота за ее 12-летним сыном Искандером. Но сотрудники госпиталя и местные жители, не верящие в выдумку о Халиме, прячут мальчика, а потом переправляют в советское посольство. Искандер рассказывает всю правду о своей матери, и власти вынуждены освободить ее...
Тем временем патриоты начинают борьбу против незаконного антинародного правительства.
Доп. информация:
Сценаристы: Анатолий Галиев, Эдуард Тропинин
Оператор: Леонид Травицкий
Композитор: Румиль Вильданов
Художники: Вениамин Мякотных, Рафаэль Сулейманов
Производство: Узбекфильм
Премьера: 2 июля 1983 (Москва)
НАГРАДЫ, НОМИНАЦИИ, ФЕСТИВАЛИ
На XVI Всесоюзном кинофестивале в Ленинграде (1983 г.) диплом за лучшее раскрытие темы защиты детства.
Релиз:

Благодарность: за редкий фильм NickK88442200 / Antonello500
Отдельное спасибо за постер Barents
Мои раздачи:Качество видео: VHSRip
Формат видео: MPG
Видео: MPEG2 Video 720x576 (4:3) 25fps, 4 179 kb/s
Аудио: MPEG Audio 48000Hz stereo 224kbps
Семпл: https://www.sendspace.com/file/584wgg

MediaInfo

General
Complete name : D:\Новая земля 2\Художественные фильмы\Переворот по инструкции 107 (1982)\Переворот по инструкции 107 (1982).mpg
Format : MPEG-PS
File size : 2.68 GiB
Duration : 1 h 25 min
Overall bit rate mode : Variable
Overall bit rate : 4 493 kb/s
Video
ID : 224 (0xE0)
Format : MPEG Video
Format version : Version 2
Format profile : Main@Main
Format settings, BVOP : Yes
Format settings, Matrix : Default
Format settings, GOP : M=3, N=12
Duration : 1 h 25 min
Bit rate mode : Variable
Bit rate : 4 179 kb/s
Maximum bit rate : 6 000 kb/s
Width : 720 pixels
Height : 576 pixels
Display aspect ratio : 4:3
Frame rate : 25.000 FPS
Standard : PAL
Color space : YUV
Chroma subsampling : 4:2:0
Bit depth : 8 bits
Scan type : Progressive
Compression mode : Lossy
Bits/(Pixel*Frame) : 0.403
Time code of first frame : 00:00:00:00
Time code source : Group of pictures header
GOP, Open/Closed : Open
GOP, Open/Closed of first fram : Closed
Stream size : 2.49 GiB (93%)
Audio
ID : 192 (0xC0)
Format : MPEG Audio
Format version : Version 1
Format profile : Layer 2
Duration : 1 h 25 min
Bit rate mode : Constant
Bit rate : 224 kb/s
Channel(s) : 2 channels
Sampling rate : 48.0 kHz
Compression mode : Lossy
Delay relative to video : 16 ms
Stream size : 137 MiB (5%)
[cybertorrent.ru].t43428.torrent 
Торрент: Зарегистрирован [ 2018-03-23 14:15 ] · 5E8332FF0C0B5CFC60935B819A328AA1681B784B

Скачать .torrent

Скачать

14 KB

Статус: проверено
Скачан: 0 раз
Размер: 2,68 GB
Профиль [ЛС]
Показать сообщения:    

Текущее время: 20-Ноя 13:12

Часовой пояс: UTC ± 0



Вы не можете начинать темы
Вы не можете отвечать на сообщения
Вы не можете редактировать свои сообщения
Вы не можете удалять свои сообщения
Вы не можете голосовать в опросах
Вы не можете прикреплять файлы к сообщениям
Вы можете скачивать файлы
Torrents24.ru открытый BitTorrent Torrents24.pl открытый BitTorrent CyberTorrent.ru открытый BitTorrent BtList.ru рейтинг BitTorrent трекеров Яндекс.Метрика