Статистика раздачи
Размер:  2,22 GB   |    Зарегистрирован:  3 месяца 7 дней   |    Скачан:  0 раз

Полного источника не было: Никогда

 
   
 
 

lopster ®

Пол:
Не указан
Стаж:
3 месяца 7 дней
Сообщений:
612

Крым
«С любимыми не расставайтесь»
- Год выхода: 2017
Выпущено: Россия / Пиманов и партнеры
Жанр: драма, боевик
Продолжительность: 01:36:12
Навигация по главам: Есть (15 глав)-Режиссер:
Алексей Пиманов-В ролях:
Роман Курцын (Саша), Евгения Лапова (Алена), Павел Крайнов (Микола), Павел Трубинер (Алексей), Борис Щербаков (полковник), Елена Котельникова (мама Саши), Геннадий Яковлев (отец Саши), Алексей Комашко (Петр), Никита Зверев (Львовянин), Игорь Буяновер (Грицюк), Илья Домбровский (Богдан)-О фильме:
История о любви, вере и чести, о силе духа и настоящей дружбе на фоне реальных событий крымской весны 2014 года.
Судьба свела их в Крыму близ древнего города Мангуп-Кале. Это была любовь с первого взгляда… В непростые дни исторических перемен они должны сохранить свою жизнь и любовь.-Релиз групп | | КиноПоиск | Сэмпл |-Качество: WEB-DLRip-AVC [WEB_DL_1080p]
Формат: MKV
Видео: 1152x482 (2,40:1), 25,000 fps, x264 ~2853 kbps avg, 0.206 bit/pixel
Аудио: 48 kHz, AC3 Dolby Digital, 3/2 (L,C,R,l,r) + LFE ch, ~384 kbps avg-

Скриншоты

-

MediaInfo

Код:Общее
Полное имя : D:\Krym_2017_WEB-DLRip-AVC_iT_by_Dalemake.mkv
Формат : Matroska
Версия формата : Version 4 / Version 2
Размер файла : 2,22 Гбайт
Продолжительность : 1 ч. 36 м.
Общий поток : 3303 Кбит/сек
Дата кодирования : UTC 2017-11-13 20:56:49
Программа кодирования : mkvmerge v7.8.0 ('River Man') 32bit built on Apr 3 2015 12:11:22
Библиотека кодирования : libebml v1.3.1 + libmatroska v1.4.2
DURATION : 01:36:12.352000000
NUMBER_OF_FRAMES : 180386
NUMBER_OF_BYTES : 277072896
_STATISTICS_WRITING_APP : mkvmerge v7.8.0 ('River Man') 32bit built on Apr 3 2015 12:11:22
_STATISTICS_WRITING_DATE_UTC : 2017-11-13 20:56:49
_STATISTICS_TAGS : BPS DURATION NUMBER_OF_FRAMES NUMBER_OF_BYTES
Видео
Идентификатор : 1
Формат : AVC
Формат/Информация : Advanced Video Codec
Профиль формата : High@L4.1
Параметр CABAC формата : Да
Параметр ReFrames формата : 11 кадров
Идентификатор кодека : V_MPEG4/ISO/AVC
Продолжительность : 1 ч. 36 м.
Битрейт : 2853 Кбит/сек
Ширина : 1152 пикселя
Высота : 482 пикселя
Соотношение сторон : 2,40:1
Частота кадров : 25,000 кадров/сек
Цветовое пространство : YUV
Субдискретизация насыщенности : 4:2:0
Битовая глубина : 8 бит
Тип развёртки : Прогрессивная
Бит/(Пиксели*Кадры) : 0.206
Размер потока : 1,92 Гбайт (86%)
Заголовок : [Krym_2017_All Films Rutracker.org_by Dalemake]
Библиотека кодирования : x264 core 146 r2538 121396c
Настройки программы : cabac=1 / ref=11 / deblock=1:-3:-2 / analyse=0x3:0x133 / me=umh / subme=11 / psy=1 / psy_rd=1.00:0.00 / mixed_ref=1 / me_range=48 / chroma_me=1 / trellis=2 / 8x8dct=1 / cqm=0 / deadzone=21,11 / fast_pskip=1 / chroma_qp_offset=-4 / threads=6 / lookahead_threads=1 / sliced_threads=0 / nr=0 / decimate=0 / interlaced=0 / bluray_compat=0 / constrained_intra=0 / bframes=10 / b_pyramid=2 / b_adapt=2 / b_bias=0 / direct=1 / weightb=1 / open_gop=0 / weightp=2 / keyint=250 / keyint_min=25 / scenecut=40 / intra_refresh=0 / rc_lookahead=60 / rc=crf / mbtree=0 / crf=18.1 / qcomp=0.60 / qpmin=0 / qpmax=69 / qpstep=4 / vbv_maxrate=50000 / vbv_bufsize=62500 / crf_max=0.0 / nal_hrd=none / filler=0 / ip_ratio=1.40 / pb_ratio=1.35 / aq=1:1.00
Default : Да
Forced : Нет
Аудио
Идентификатор : 2
Формат : AC-3
Формат/Информация : Audio Coding 3
Расширение режима : CM (complete main)
Параметр Endianness формата : Big
Идентификатор кодека : A_AC3
Продолжительность : 1 ч. 36 м.
Вид битрейта : Постоянный
Битрейт : 384 Кбит/сек
Каналы : 6 каналов
Расположение каналов : Front: L C R, Side: L R, LFE
Частота : 48,0 КГц
Битовая глубина : 16 бит
Метод сжатия : С потерями
Размер потока : 264 Мбайт (12%)
Заголовок : iTunes Russia
Язык : Russian
Default : Да
Forced : Да
Меню
00:00:00.000 : en:Глава 1
00:07:22.720 : en:Глава 2
00:13:24.440 : en:Глава 3
00:19:32.760 : en:Глава 4
00:24:40.960 : en:Глава 5
00:30:49.600 : en:Глава 6
00:37:24.080 : en:Глава 7
00:44:02.200 : en:Глава 8
00:51:59.640 : en:Глава 9
00:56:57.280 : en:Глава 10
01:03:27.040 : en:Глава 11
01:08:43.960 : en:Глава 12
01:14:59.320 : en:Глава 13
01:19:54.080 : en:Глава 14
01:27:27.280 : en:Глава 15
-
[cybertorrent.ru].t435.torrent 
Торрент: Зарегистрирован [ 2018-02-15 15:48 ] · B7FCFCC5F1E61A8AEBE62B4FE9C2A7752839BC72

Скачать .torrent

Скачать

12 KB

Статус: проверено
Скачан: 0 раз
Размер: 2,22 GB
Профиль [ЛС]
Показать сообщения:    

Текущее время: 23-Май 07:24

Часовой пояс: UTC ± 0



Вы не можете начинать темы
Вы не можете отвечать на сообщения
Вы не можете редактировать свои сообщения
Вы не можете удалять свои сообщения
Вы не можете голосовать в опросах
Вы не можете прикреплять файлы к сообщениям
Вы можете скачивать файлы