Статистика раздачи
Размер:  1,46 GB   |    Зарегистрирован:  3 месяца 6 дней   |    Скачан:  0 раз

Полного источника не было: Никогда

Личеров:  5  [  0 KB/s  ]  
 
   
 
 

lopster ®

Пол:
Не указан
Стаж:
3 месяца 6 дней
Сообщений:
612

РОДИНА«Мы с тобой одной крови. Ты и я»Жанр: драма, триллер
Год выпуска: 2015
Продолжительность: 02:04:38
Перевод: Не требуется
Субтитры: русские (неотключаемые, только на иностранную речь)
Оригинальная аудиодорожка: русский
Режиссёр: Петр Буслов
В ролях: Андрей Смоляков, Пётр Фёдоров, Любовь Аксенова, Павел Личникофф, Екатерина Волкова, Сергей Бадюк, Андрей Мерзликин, Кирилл Кяро, Александр Робак, Максим Лагашкин
Описание: Здесь ночи слепят огнями рейвов, дни баюкают шумом волн, песок похож на золото, деньги — просто бумага, живи и не тужи, а если совсем повезет, встретишь Бога. Здесь — это Индия, Гоа, куда люди со всего мира отправляются, чтобы найти или потерять себя.
Ева, дочь богатого русского, попадает сюда не по своей воле — отец психанул и высадил ночью из частного самолёта на первой подвернувшейся полосе. Когда отец одумался, девушку уже увлёк лабиринт человеческих судеб. Здесь новосибирский парень Макар жадно ищет просветления — до конца отпуска остался один день. Здесь Алексей и Кристина прощаются с семейным счастьем, а мелкие бесы на байках Димон и Леня испытывают мир на прочность. Здесь Гуру (только не надо его так называть!) Космос дарит препараты, сокращающие путь в другую реальность до одного щелчка. Здесь разные судьбы. Разные люди. Но у всех одна Родина. Не любить которую легко, когда она рядом.5.9 : кинопоиск
imdb : 5.6
Качество видео: WEB-DLRip-AVC | Сэмпл | Исходник: WEB-DL 720p
Формат видео: MKV
Видео: AVC, 860x360 (2.389), 24.000 fps, 1 289 kb/s, 0.173 bit/pixel
Аудио: AC3, 48.0 kHz, 384 kb/s, 6 channels

x264 + MediaInfo

frame I:1225  Avg QP:15.84  size: 39930
frame P:50475 Avg QP:18.68  size: 13156
frame B:127784 Avg QP:20.86  size:  3846
Код:General
Unique ID : 239455998309770396535265667886882845342 (0xB4258C39655CA2DBB20F713E155D729E)
Complete name : e:\rodina.2015.web-dlrip-avc.mkv
Format : Matroska
Format version : Version 4 / Version 2
File size : 1.46 GiB
Duration : 2 h 4 min
Overall bit rate : 1 674 kb/s
Movie name : Родина (2015, Петр Буслов)
Encoded date : UTC 2017-11-16 11:58:10
Writing application : mkvmerge v17.0.0 ('Be Ur Friend') 64-bit
Writing library : libebml v1.3.5 + libmatroska v1.4.8
Cover : Yes
Attachments : cover.jpg
Video
ID : 1
Format : AVC
Format/Info : Advanced Video Codec
Format profile : High@L4
Format settings, CABAC : Yes
Format settings, ReFrames : 13 frames
Codec ID : V_MPEG4/ISO/AVC
Duration : 2 h 4 min
Bit rate : 1 289 kb/s
Width : 860 pixels
Height : 360 pixels
Display aspect ratio : 2.40:1
Frame rate mode : Constant
Frame rate : 24.000 FPS
Color space : YUV
Chroma subsampling : 4:2:0
Bit depth : 8 bits
Scan type : Progressive
Bits/(Pixel*Frame) : 0.173
Stream size : 1.12 GiB (77%)
Writing library : x264 core 152 r2851 ba24899
Encoding settings : cabac=1 / ref=13 / deblock=1:-1:-1 / analyse=0x3:0x113 / me=umh / subme=10 / psy=1 / psy_rd=1.00:0.15 / mixed_ref=1 / me_range=32 / chroma_me=1 / trellis=2 / 8x8dct=1 / cqm=0 / deadzone=21,11 / fast_pskip=0 / chroma_qp_offset=-3 / threads=6 / lookahead_threads=1 / sliced_threads=0 / nr=0 / decimate=1 / interlaced=0 / bluray_compat=0 / constrained_intra=0 / bframes=9 / b_pyramid=2 / b_adapt=2 / b_bias=0 / direct=3 / weightb=1 / open_gop=0 / weightp=2 / keyint=240 / keyint_min=24 / scenecut=40 / intra_refresh=0 / rc_lookahead=60 / rc=2pass / mbtree=0 / bitrate=1289 / ratetol=1.0 / qcomp=0.60 / qpmin=0 / qpmax=69 / qpstep=4 / cplxblur=20.0 / qblur=0.5 / vbv_maxrate=25000 / vbv_bufsize=25000 / nal_hrd=none / filler=0 / ip_ratio=1.40 / pb_ratio=1.30 / aq=1:1.00
Language : Russian
Default : Yes
Forced : No
Audio
ID : 2
Format : AC-3
Format/Info : Audio Coding 3
Format settings, Endianness : Big
Codec ID : A_AC3
Duration : 2 h 4 min
Bit rate mode : Constant
Bit rate : 384 kb/s
Channel(s) : 6 channels
Channel positions : Front: L C R, Side: L R, LFE
Sampling rate : 48.0 kHz
Frame rate : 31.250 FPS (1536 spf)
Bit depth : 16 bits
Compression mode : Lossy
Stream size : 342 MiB (23%)
Language : Russian
Service kind : Complete Main
Default : Yes
Forced : No
[cybertorrent.ru].t438.torrent 
Торрент: Зарегистрирован [ 2018-02-15 15:48 ] · E68AE7089DC6CB175E7C780C13C9C3EB2B3C4B09

Скачать .torrent

Скачать

15 KB

Статус: проверено
Скачан: 0 раз
Размер: 1,46 GB
Профиль [ЛС]
Показать сообщения:    

Текущее время: 21-Май 18:56

Часовой пояс: UTC ± 0



Вы не можете начинать темы
Вы не можете отвечать на сообщения
Вы не можете редактировать свои сообщения
Вы не можете удалять свои сообщения
Вы не можете голосовать в опросах
Вы не можете прикреплять файлы к сообщениям
Вы можете скачивать файлы