Статистика раздачи
Размер:  2,05 GB   |    Зарегистрирован:  3 месяца 8 дней   |    Скачан:  0 раз

Полного источника не было: Никогда

 
   
 
 

lopster ®

Пол:
Не указан
Стаж:
3 месяца 8 дней
Сообщений:
612

Гоголь. Начало«Самая тёмная ночь перед рассветом»- Жанр: приключения, триллер, детектив
Год выпуска: 2017
Продолжительность: 01:46:47
Навигация по главам: есть
Режиссер: Егор Баранов
В ролях: Александр Петров (Николай Гоголь), Олег Меньшиков (Гуро), Евгений Стычкин (Бинх), Таисия Вилкова (Лиза), Артем Ткаченко (Данишевский), Юлия Франц (Оксана), Евгений Сытый (Яким), Ян Цапник (Бомгарт), Сергей Бадюк (Вакула), Марта Тимофеева (Василина, дочь кузнеца Вакулы), Светлана Киреева (Христина), Артем Сучков (Тесак)
Описание: Казаки, ведьмы, русалки, утопленницы и другие обитатели Диканьки встречаются лицом к лицу со своим создателем Николаем Гоголем, молодым писарем из Петербурга, который страдает загадочными припадками и может общаться с персонажами из потустороннего мира. Вместе со своим начальником, блестящим столичным следователем Яковом Гуро, начинающий писатель приезжает на Полтавщину расследовать таинственные убийства девушек. Здесь же он встречает свою любовь, которой суждено сыграть роковую роль в его судьбе. Но хватит ли юному литератору духу противостоять невообразимому? Ведь по слухам, которые активно разносят напуганные местные жители, за преступлениями стоит не кто иной, как сам Дьявол в обличии черного всадника.- -Качество: BDRip-AVC (исходник - Blu-Ray | GOGOL_NACHALO_RUS_BLUEBIRD)
Формат видео: MKV
Видео: x264, 1150x484 (2.40:1) 24 fps, ~2246 kbps, 0.168 bit/pixel
Аудио: 48 kHz, AC3 Dolby Digital, 5.1 (Front: L C R, Side: L R, LFE) ch, ~448 kbps-

MediaInfo | x264 log

Format : Matroska
Format version : Version 4 / Version 2
File size : 2.05 GiB
Duration : 1 h 46 min
Overall bit rate : 2 748 kb/s
Movie name : Гоголь. Начало (2017) :: AFM ::
Encoded date : UTC 2017-11-18 22:23:45
Writing application : mkvmerge v8.3.0 ('Over the Horizon') 32bit
Writing library : libebml v1.3.1 + libmatroska v1.4.2
Video
ID : 1
Format : AVC
Format/Info : Advanced Video Codec
Format profile : High@L4.1
Format settings, CABAC : Yes
Format settings, RefFrames : 11 frames
Codec ID : V_MPEG4/ISO/AVC
Duration : 1 h 46 min
Bit rate : 2 246 kb/s
Width : 1 150 pixels
Height : 484 pixels
Display aspect ratio : 2.40:1
Frame rate mode : Constant
Frame rate : 24.000 FPS
Color space : YUV
Chroma subsampling : 4:2:0
Bit depth : 8 bits
Scan type : Progressive
Bits/(Pixel*Frame) : 0.168
Stream size : 1.68 GiB (82%)
Title : BDRip by AFM
Writing library : x264 core 152 r2851+45 9658d1a 7mod [8-bit@all X86_64]
Encoding settings : cabac=1 / ref=11 / deblock=1:-3:-2 / analyse=0x3:0x133 / me=umh / subme=10 / psy=1 / fade_compensate=0.00 / psy_rd=1.00:0.00 / mixed_ref=1 / me_range=32 / chroma_me=0 / trellis=2 / 8x8dct=1 / cqm=0 / deadzone=21,11 / fast_pskip=0 / chroma_qp_offset=-2 / threads=6 / lookahead_threads=1 / sliced_threads=0 / nr=0 / decimate=1 / interlaced=0 / bluray_compat=0 / constrained_intra=0 / fgo=0 / bframes=14 / b_pyramid=2 / b_adapt=2 / b_bias=0 / direct=1 / weightb=1 / open_gop=0 / weightp=2 / keyint=240 / keyint_min=23 / scenecut=40 / intra_refresh=0 / rc_lookahead=90 / rc=crf / mbtree=0 / crf=18.4000 / qcomp=0.65 / qpmin=0:0:0 / qpmax=69:69:69 / qpstep=4 / vbv_maxrate=50000 / vbv_bufsize=62500 / crf_max=0.0 / nal_hrd=none / filler=0 / ip_ratio=1.35 / pb_ratio=1.20 / aq=3:0.80 / aq-sensitivity=10.00 / aq-factor=1.00:1.00:1.00 / aq2=0 / aq3=0 / zones=148734,153774,q=30
Language : Russian
Default : Yes
Forced : No
Audio
ID : 2
Format : AC-3
Format/Info : Audio Coding 3
Format settings, Endianness : Big
Codec ID : A_AC3
Duration : 1 h 46 min
Bit rate mode : Constant
Bit rate : 448 kb/s
Channel(s) : 6 channels
Channel positions : Front: L C R, Side: L R, LFE
Sampling rate : 48.0 kHz
Frame rate : 31.250 FPS (1536 SPF)
Bit depth : 16 bits
Compression mode : Lossy
Stream size : 342 MiB (16%)
Title : AC3 5.1 ~448 kbps
Language : Russian
Service kind : Complete Main
Default : Yes
Forced : No
Menu
00:00:00.000 : ru:Chapter 1
00:00:25.916 : ru:Chapter 2
00:14:02.208 : ru:Chapter 3
00:27:17.041 : ru:Chapter 4
00:40:22.375 : ru:Chapter 5
00:54:57.291 : ru:Chapter 6
01:06:34.458 : ru:Chapter 7
01:17:57.500 : ru:Chapter 8
01:30:44.083 : ru:Chapter 9

x264

x264 [info]: frame I:1303 Avg QP:15.76 size: 56636
x264 [info]: frame P:32176 Avg QP:17.27 size: 23384
x264 [info]: frame B:120295 Avg QP:19.02 size: 8437
x264 [info]: consecutive B-frames: 2.0% 1.8% 5.5% 21.8% 20.8% 35.7% 6.4% 1.9% 1.5% 0.5% 0.5% 0.9% 0.3% 0.1% 0.4%
x264 [info]: mb I I16..4: 5.0% 81.2% 13.8%
x264 [info]: mb P I16..4: 2.1% 17.1% 2.4% P16..4: 38.9% 21.6% 12.2% 0.4% 0.1% skip: 5.1%
x264 [info]: mb B I16..4: 0.3% 1.3% 0.3% B16..8: 36.3% 12.2% 2.4% direct: 9.8% skip:37.7% L0:43.7% L1:43.8% BI:12.5%
x264 [info]: 8x8 transform intra:77.7% inter:68.8%
x264 [info]: coded y,uvDC,uvAC intra: 77.3% 80.9% 54.2% inter: 25.4% 27.7% 4.6%
x264 [info]: i16 v,h,dc,p: 24% 14% 11% 51%
x264 [info]: i8 v,h,dc,ddl,ddr,vr,hd,vl,hu: 15% 8% 9% 8% 12% 12% 11% 11% 13%
x264 [info]: i4 v,h,dc,ddl,ddr,vr,hd,vl,hu: 28% 6% 5% 8% 12% 12% 10% 9% 10%
x264 [info]: i8c dc,h,v,p: 42% 25% 19% 14%
x264 [info]: Weighted P-Frames: Y:97.2% UV:3.7%
x264 [info]: ref P L0: 46.1% 11.4% 16.2% 6.4% 5.4% 3.8% 3.5% 2.0% 1.9% 1.6% 1.6% 0.1% 0.0%
x264 [info]: ref B L0: 71.1% 11.6% 6.1% 3.2% 2.4% 2.0% 1.6% 1.1% 0.7% 0.3%
x264 [info]: ref B L1: 94.0% 6.0%
x264 [info]: kb/s:2298.77

Скриншоты

с названием

[cybertorrent.ru].t439.torrent 
Торрент: Зарегистрирован [ 2018-02-15 15:48 ] · 47F46AD0B77C4401244F9906DDEBAC1F39EF307A

Скачать .torrent

Скачать

11 KB

Статус: проверено
Скачан: 0 раз
Размер: 2,05 GB
Профиль [ЛС]
Показать сообщения:    

Текущее время: 23-Май 16:30

Часовой пояс: UTC ± 0



Вы не можете начинать темы
Вы не можете отвечать на сообщения
Вы не можете редактировать свои сообщения
Вы не можете удалять свои сообщения
Вы не можете голосовать в опросах
Вы не можете прикреплять файлы к сообщениям
Вы можете скачивать файлы