Статистика раздачи
Размер:  2,18 GB   |    Зарегистрирован:  6 месяцев 28 дней   |    Скачан:  0 раз

Полного источника не было: Никогда

   
 

солнышко ®

Пол:
Не указан
Стаж:
7 месяцев 3 дня
Сообщений:
565

Белый парень Рик / White Boy Rick
Страна: США
Жанр: драма, криминал, биография
Год выпуска: 2018
Продолжительность: 01:51:06-Перевод: Любительский (многоголосый закадровый) | HDRezka Studio
Субтитры: русские (ненормативная лексика), английские
Оригинальная аудиодорожка: английский-Режиссер: Ян Деманж / Yann Demange-В ролях: Мэттью МакКонахи, Ричи Мерритт, Дженнифер Джейсон Ли, Брюс Дерн, Бел Паули, Брайан Тайри Генри, Рори Кокрейн, АрДжей Сайлер, Джонатан Мэйджерс, Эдди Марсан, Тейлор Пейдж-Описание: История Ричарда Верши-младшего, который в 14 лет стал самым молодым осведомителем ФБР, чтобы спасти своего отца от тюрьмы.- -Качество видео: BDRip | White.Boy.Rick.2018.1080p.BluRay.REMUX.AVC.DTS-HD.MA.7.1-FGT
Формат видео: AVI
Видео: 720x304 (2.37:1), 23.976 fps, XviD build 73 ~2156 kbps avg, 0.41 bit/pixel
Аудио 1: 48 kHz, AC3 Dolby Digital, 2/0 (L,R) ch, ~192 kbps| RUS
Аудио 2: 48 kHz, AC3 Dolby Digital, 3/2 (L,C,R,l,r) + LFE ch, ~448 kbps | ENG-[box]Сэмпл[/box]-

MediaInfo

Код:Формат : AVI
Формат/Информация : Audio Video Interleave
Профиль формата : OpenDML
Размер файла : 2,18 Гбайт
Продолжительность : 1 ч. 51 м.
Общий поток : 2803 Кбит/сек
Программа кодирования : VirtualDubMod 1.5.10.3 | www.virtualdub-fr.org || (build 2550/release)
Библиотека кодирования : VirtualDubMod build 2550/release
Видео
Идентификатор : 0
Формат : MPEG-4 Visual
Профиль формата : Advanced Simple@L5
Настройки формата : BVOP1 / Custom Matrix
Параметр BVOP формата : 1
Параметр QPel формата : Нет
Параметр GMC формата : Без точки перехода
Параметр матрицы формата : Выборочная
Идентификатор кодека : XVID
Идентификатор кодека/Подсказка : XviD
Продолжительность : 1 ч. 51 м.
Битрейт : 2145 Кбит/сек
Ширина : 720 пикселей
Высота : 304 пикселя
Соотношение сторон : 2,35:1
Частота кадров : 23,976 (24000/1001) кадра/сек
Цветовое пространство : YUV
Субдискретизация насыщенности : 4:2:0
Битовая глубина : 8 бит
Тип развёртки : Прогрессивная
Метод сжатия : С потерями
Бит/(Пиксели*Кадры) : 0.409
Размер потока : 1,66 Гбайт (77%)
Библиотека кодирования : XviD 73
Аудио #1
Идентификатор : 1
Формат : AC-3
Формат/Информация : Audio Coding 3
Коммерческое название : Dolby Digital
Идентификатор кодека : 2000
Продолжительность : 1 ч. 51 м.
Вид битрейта : Постоянный
Битрейт : 192 Кбит/сек
Каналы : 2 канала
Channel layout : L R
Частота : 48,0 КГц
Частота кадров : 31,250 кадров/сек (1536 SPF)
Битовая глубина : 16 бит
Метод сжатия : С потерями
Размер потока : 153 Мбайт (7%)
Выравнивание : Разделение по промежуткам
Продолжительность промежутка : 42 мс. (1,00 видеокадр)
Время предзагрузки промежутка : 500 мс.
Заголовок : Russian
ServiceKind/String : Complete Main
Аудио #2
Идентификатор : 2
Формат : AC-3
Формат/Информация : Audio Coding 3
Коммерческое название : Dolby Digital
Идентификатор кодека : 2000
Продолжительность : 1 ч. 51 м.
Вид битрейта : Постоянный
Битрейт : 448 Кбит/сек
Каналы : 6 каналов
Channel layout : L R C LFE Ls Rs
Частота : 48,0 КГц
Частота кадров : 31,250 кадров/сек (1536 SPF)
Битовая глубина : 16 бит
Метод сжатия : С потерями
Размер потока : 356 Мбайт (16%)
Выравнивание : Разделение по промежуткам
Продолжительность промежутка : 42 мс. (1,00 видеокадр)
Время предзагрузки промежутка : 500 мс.
Заголовок : English
ServiceKind/String : Complete Main

Скриншоты


[cybertorrent.ru].t440.torrent 
Торрент: Зарегистрирован [ 2019-03-18 13:08 ] · 1164FE9523D0531BE4F208BF5C50EC394A8217CC

Скачать .torrent

Скачать

12 KB

Статус: проверено
Скачан: 0 раз
Размер: 2,18 GB
terms.php
Профиль ЛС
Показать сообщения:    

Текущее время: 16-Окт 04:43

Часовой пояс: UTC ± 0



Вы не можете начинать темы
Вы не можете отвечать на сообщения
Вы не можете редактировать свои сообщения
Вы не можете удалять свои сообщения
Вы не можете голосовать в опросах
Вы не можете прикреплять файлы к сообщениям
Вы можете скачивать файлы