BitTorrent клиенты



(Jazz. Bop, Bossa Nova) [CD] Baptiste Herbin - Dreams and Connections - 2018, FLAC (tracks+.cue), lossless

Ответить на тему
Статистика раздачи
Размер:  330 MB   |    Зарегистрирован:  8 месяцев 7 дней   |    Скачан:  0 раз

Полного источника не было: Никогда

 
   
 
 
Автор Сообщение

99.99 ®

Пол: Не указан

Стаж: 11 месяцев 23 дня

Сообщений: 496

Создавать темы 16-Июн-2018 15:33

[Цитировать]

Baptiste Herbin / Dreams and Connections
Жанр: Jazz. Bop, Bossa Nova
Носитель: CD
Страна-производитель диска (релиза): France
Год издания: 2018
Издатель (лейбл): Space Time Records
Номер по каталогу: BG 1845
Аудиокодек: FLAC (*.flac)
Тип рипа: tracks+.cue
Битрейт аудио: lossless
Продолжительность: 49:21
Источник (релизер): artmuss
Наличие сканов в содержимом раздачи: Front
Треклист:
01. For Julian (5:02)
02. Dreams and Connections (7:24)
03. Mia Sorella (7:41)
04. For JC (5:04)
05. Confus?o geral (2:56)
06. Idriss (6:08)
07. The Sphere (4:31)
08. Mister X (4:44)
09. Poor Butterfly (3:33)
10. Um a zero (2:14)

Лог создания рипа

Exact Audio Copy V1.3 from 2. September 2016
EAC extraction logfile from 1. June 2018, 10:44
Baptiste Herbin / Dreams and Connections
Used drive : hp DVDRW DU8A6SH Adapter: 1 ID: 0
Read mode : Secure
Utilize accurate stream : Yes
Defeat audio cache : Yes
Make use of C2 pointers : No
Read offset correction : 6
Overread into Lead-In and Lead-Out : No
Fill up missing offset samples with silence : Yes
Delete leading and trailing silent blocks : No
Null samples used in CRC calculations : Yes
Used interface : Native Win32 interface for Win NT & 2000
Gap handling : Appended to previous track
Used output format : User Defined Encoder
Selected bitrate : 128 kBit/s
Quality : High
Add ID3 tag : No
Command line compressor : C:\Program Files (x86)\Exact Audio Copy\Flac\flac.exe
Additional command line options : -8 -e -p -V -T "ARTIST=%artist%" -T "TITLE=%title%" -T "ALBUM=%albumtitle%" -T "DATE=%year%" -T "TRACKNUMBER=%tracknr%" -T "GENRE=%genre%" -T "PERFORMER=%albuminterpret%" -T "COMPOSER=%composer%" %haslyrics%--tag-from-file=LYRICS="%lyricsfile%"%haslyrics% -T "ALBUMARTIST=%albumartist%" -T "DISCNUMBER=%cdnumber%" -T "TOTALDISCS=%totalcds%" -T "TOTALTRACKS=%numtracks%" -T "COMMENT=%comment%" %source% -o %dest%
TOC of the extracted CD
Track | Start | Length | Start sector | End sector
---------------------------------------------------------
1 | 0:00.00 | 5:02.04 | 0 | 22653
2 | 5:02.04 | 7:24.60 | 22654 | 56013
3 | 12:26.64 | 7:41.11 | 56014 | 90599
4 | 20:08.00 | 5:04.25 | 90600 | 113424
5 | 25:12.25 | 2:56.40 | 113425 | 126664
6 | 28:08.65 | 6:08.40 | 126665 | 154304
7 | 34:17.30 | 4:31.23 | 154305 | 174652
8 | 38:48.53 | 4:44.51 | 174653 | 196003
9 | 43:33.29 | 3:33.21 | 196004 | 211999
10 | 47:06.50 | 2:14.28 | 212000 | 222077
Track 1
Filename C:\EAC Rips\Baptiste Herbin - Dreams and Connections (2018) [FLAC]\01 - For Julian.wav
Pre-gap length 0:00:02.00
Peak level 98.8 %
Extraction speed 2.7 X
Track quality 100.0 %
Test CRC E4435A18
Copy CRC E4435A18
Track not present in AccurateRip database
Copy OK
Track 2
Filename C:\EAC Rips\Baptiste Herbin - Dreams and Connections (2018) [FLAC]\02 - Dreams and Connections.wav
Pre-gap length 0:00:01.66
Peak level 98.8 %
Extraction speed 3.3 X
Track quality 100.0 %
Test CRC F5448A96
Copy CRC F5448A96
Track not present in AccurateRip database
Copy OK
Track 3
Filename C:\EAC Rips\Baptiste Herbin - Dreams and Connections (2018) [FLAC]\03 - Mia Sorella.wav
Peak level 98.8 %
Extraction speed 3.4 X
Track quality 99.9 %
Test CRC 492712A8
Copy CRC 492712A8
Track not present in AccurateRip database
Copy OK
Track 4
Filename C:\EAC Rips\Baptiste Herbin - Dreams and Connections (2018) [FLAC]\04 - For JC.wav
Peak level 98.8 %
Extraction speed 4.0 X
Track quality 100.0 %
Test CRC E53D8320
Copy CRC E53D8320
Track not present in AccurateRip database
Copy OK
Track 5
Filename C:\EAC Rips\Baptiste Herbin - Dreams and Connections (2018) [FLAC]\05 - Confusão geral.wav
Peak level 98.8 %
Extraction speed 3.9 X
Track quality 100.0 %
Test CRC F8255E4C
Copy CRC F8255E4C
Track not present in AccurateRip database
Copy OK
Track 6
Filename C:\EAC Rips\Baptiste Herbin - Dreams and Connections (2018) [FLAC]\06 - Idriss.wav
Peak level 98.8 %
Extraction speed 4.0 X
Track quality 99.9 %
Test CRC 64BBE7DB
Copy CRC 64BBE7DB
Track not present in AccurateRip database
Copy OK
Track 7
Filename C:\EAC Rips\Baptiste Herbin - Dreams and Connections (2018) [FLAC]\07 - The Sphere.wav
Peak level 98.8 %
Extraction speed 4.6 X
Track quality 100.0 %
Test CRC EAB0AC74
Copy CRC EAB0AC74
Track not present in AccurateRip database
Copy OK
Track 8
Filename C:\EAC Rips\Baptiste Herbin - Dreams and Connections (2018) [FLAC]\08 - Mister X.wav
Peak level 98.8 %
Extraction speed 4.8 X
Track quality 100.0 %
Test CRC DE803B42
Copy CRC DE803B42
Track not present in AccurateRip database
Copy OK
Track 9
Filename C:\EAC Rips\Baptiste Herbin - Dreams and Connections (2018) [FLAC]\09 - Poor Butterfly.wav
Pre-gap length 0:00:01.00
Peak level 98.8 %
Extraction speed 4.8 X
Track quality 100.0 %
Test CRC F673B1FA
Copy CRC F673B1FA
Track not present in AccurateRip database
Copy OK
Track 10
Filename C:\EAC Rips\Baptiste Herbin - Dreams and Connections (2018) [FLAC]\10 - Um a zero.wav
Peak level 98.8 %
Extraction speed 4.4 X
Track quality 100.0 %
Test CRC 158843FC
Copy CRC 158843FC
Track not present in AccurateRip database
Copy OK
None of the tracks are present in the AccurateRip database
No errors occurred
End of status report
---- CUETools DB Plugin V2.1.6
[CTDB TOCID: OrGR95zsuwOj4tsjcZRz6HeLICg-] found
Submit result: OrGR95zsuwOj4tsjcZRz6HeLICg- has been confirmed
Track | CTDB Status
1 | (2/2) Accurately ripped
2 | (2/2) Accurately ripped
3 | (2/2) Accurately ripped
4 | (2/2) Accurately ripped
5 | (2/2) Accurately ripped
6 | (2/2) Accurately ripped
7 | (2/2) Accurately ripped
8 | (2/2) Accurately ripped
9 | (2/2) Accurately ripped
10 | (2/2) Accurately ripped
==== Log checksum 0A2166FB3B1FBA5A3C9D7AE1789EDDCEE5E92B1355560DC8BAB974373C91CDA6 ====

Содержание индексной карты (.CUE)

REM GENRE "jazz, bop"
REM DATE 2018
REM DISCID 750B910A
REM COMMENT "ExactAudioCopy v1.3"
PERFORMER "Baptiste Herbin"
TITLE "Dreams and Connections"
REM COMPOSER ""
FILE "01. For Julian.wav" WAVE
TRACK 01 AUDIO
TITLE "For Julian"
PERFORMER "Baptiste Herbin"
REM COMPOSER "Baptiste Herbin"
ISRC FR7V81858101
INDEX 01 00:00:00
TRACK 02 AUDIO
TITLE "Dreams and Connections"
PERFORMER "Baptiste Herbin"
REM COMPOSER "Baptiste Herbin"
ISRC FR7V81858102
INDEX 00 05:00:29
FILE "02. Dreams and Connections.wav" WAVE
INDEX 01 00:00:00
FILE "03. Mia Sorella.wav" WAVE
TRACK 03 AUDIO
TITLE "Mia Sorella"
PERFORMER "Baptiste Herbin"
REM COMPOSER "Baptiste Herbin"
ISRC FR7V81858103
INDEX 01 00:00:00
FILE "04. For JC.wav" WAVE
TRACK 04 AUDIO
TITLE "For JC"
PERFORMER "Baptiste Herbin"
REM COMPOSER "Baptiste Herbin"
ISRC FR7V81858104
INDEX 01 00:00:00
FILE "05. Confusão geral.wav" WAVE
TRACK 05 AUDIO
TITLE "Confusão geral"
PERFORMER "Baptiste Herbin"
REM COMPOSER "Traditional"
ISRC FR7V81858105
INDEX 01 00:00:00
FILE "06. Idriss.wav" WAVE
TRACK 06 AUDIO
TITLE "Idriss"
PERFORMER "Baptiste Herbin"
REM COMPOSER "Baptiste Herbin"
ISRC FR7V81858106
INDEX 01 00:00:00
FILE "07. The Sphere.wav" WAVE
TRACK 07 AUDIO
TITLE "The Sphere"
PERFORMER "Baptiste Herbin"
REM COMPOSER "Baptiste Herbin"
ISRC FR7V81858107
INDEX 01 00:00:00
FILE "08. Mister X.wav" WAVE
TRACK 08 AUDIO
TITLE "Mister X"
PERFORMER "Baptiste Herbin"
REM COMPOSER "Baptiste Herbin"
ISRC FR7V81858108
INDEX 01 00:00:00
TRACK 09 AUDIO
TITLE "Poor Butterfly"
PERFORMER "Baptiste Herbin"
REM COMPOSER "Raymond Hubbell, Giacomo Puccini"
ISRC FR7V81858109
INDEX 00 04:43:51
FILE "09. Poor Butterfly.wav" WAVE
INDEX 01 00:00:00
FILE "10. Um.a zero.wav" WAVE
TRACK 10 AUDIO
TITLE "Um.a zero"
PERFORMER "Baptiste Herbin"
REM COMPOSER "Pixinguinha"
ISRC FR7V81858110
INDEX 01 00:00:00

DR Log

foobar2000 1.1.10 / Dynamic Range Meter 1.1.1
log date: 2018-06-14 21:49:51
--------------------------------------------------------------------------------
Analyzed: Baptiste Herbin feat. Eduardo Farias, Darryl Hall & Ali Jackson / Dreams and Connections
--------------------------------------------------------------------------------
DR Peak RMS Duration Track
--------------------------------------------------------------------------------
DR6 -0.10 dB -7.21 dB 5:02 ?-For Julian
DR6 -0.10 dB -7.64 dB 7:25 ?-Dreams and Connections
DR6 -0.10 dB -7.08 dB 7:41 ?-Mia Sorella
DR6 -0.10 dB -8.12 dB 5:04 ?-For JC
DR6 -0.10 dB -6.65 dB 2:57 ?-Confusão geral
DR6 -0.10 dB -7.73 dB 6:09 ?-Idriss
DR6 -0.10 dB -8.64 dB 4:31 ?-The Sphere
DR6 -0.10 dB -7.37 dB 4:45 ?-Mister X
DR7 -0.10 dB -9.46 dB 3:33 ?-Poor Butterfly
DR7 -0.10 dB -8.50 dB 2:14 ?-Um a zero
--------------------------------------------------------------------------------
Number of tracks: 10
Official DR value: DR6
Samplerate: 44100 Hz
Channels: 2
Bits per sample: 16
Bitrate: 967 kbps
Codec: FLAC
================================================================================

Об исполнителе (группе)

http://www.baptisteherbin.com

Состав

Alto Saxophone, Soprano Saxophone – Baptiste Herbin
Double Bass – Darryl Hall
Drums – Ali Jackson
Piano – Eduardo Farias
-Раздаю до первых 5-ти скачавших, на раздачи не возвращаюсь...-
[cybertorrent.ru].t44064.torrent 
Торрент: Зарегистрирован [ 2018-06-16 15:35 ] · 20A0426059952029F16BE1DE05D2177E3C53246B

Скачать .torrent

Скачать

14 KB

Статус: проверено
Скачан: 0 раз
Размер: 330 MB
terms.php
[Профиль] [ЛС]
Показать сообщения:    
Ответить на тему

Текущее время: 23-Фев 16:12

Часовой пояс: UTC + 3



Вы не можете начинать темы
Вы не можете отвечать на сообщения
Вы не можете редактировать свои сообщения
Вы не можете удалять свои сообщения
Вы не можете голосовать в опросах
Вы не можете прикреплять файлы к сообщениям
Вы можете скачивать файлы