Статистика раздачи
Размер:  1,37 GB   |    Зарегистрирован:  3 месяца 27 дней   |    Скачан:  0 раз

Полного источника не было: Никогда

 
   
 
 

soda ®

Пол:
Не указан
Стаж:
5 месяцев 6 дней
Сообщений:
205

Версия полковника Зорина
Год выпуска: 1978
Жанр: детектив, криминал
Продолжительность: 01:23:42
Режиссёр: Андрей Ладынин
В ролях: Всеволод Санаев, Борис Иванов, Иван Воронов, Владимир Тихонов, Петр Вельяминов, Вилныс Бекерис, Елена Драпеко, Анатолий Веденкин
Описание: Дерзко ограблен ювелирный магазин, позже в лесу найден труп мужчины. В его карманах обнаружены разыскиваемые украшения и использованный автобусный билет. Расследовать преступление приглашают опытного полковника Зорина. Очень скоро сыщик понимает, что дело гораздо сложнее, чем представлялось в начале, и за всем этим стоит необычный преступник — дерзкий, наглый, не останавливающийся ни перед чем. Старый лис Зорин отправляется по следу и, конечно, находит злодея. Но доказать преступление оказывается сложнее, чем раскрыть его....

Сэмпл: https://yadi.sk/i/kLWcSRsB3TZyp7
Качество видео: HDTVRip (Исходник Версия полковника Зорина. 1978-2013-05-26.mkv / KinoZal)
Формат видео: AVI
Видео: XviD 73, 688x272, (1,53:1), 25,000 fps, 2116 Кбит/с, 8 бит
Аудио: Русский (АС3, 2 ch (Front: L R), 48,0 KHz, 224 Kbps)

MediaInfo

Общее
Полное имя : H:\Фильмы на трекер\Версия полковника Зорина (боевик, криминал 1978 год).avi
Формат : AVI
Формат/Информация : Audio Video Interleave
Размер файла : 1,37 Гбайт
Продолжительность : 1 ч. 23 м.
Общий поток : 2349 Кбит/сек
Программа кодирования : VirtualDubMod 1.5.10.2 (build 2540/release)
Библиотека кодирования : VirtualDubMod build 2540/release
Видео
Идентификатор : 0
Формат : MPEG-4 Visual
Профиль формата : Advanced Simple@L5
Параметр BVOP формата : 2
Параметр QPel формата : Нет
Параметр GMC формата : Без точки перехода
Параметр матрицы формата : Выборочная
Идентификатор кодека : XVID
Идентификатор кодека/Подсказка : XviD
Продолжительность : 1 ч. 23 м.
Битрейт : 2116 Кбит/сек
Ширина : 688 пикселей
Высота : 272 пикселя
Соотношение сторон : 2,529
Частота кадров : 25,000 кадров/сек
Цветовое пространство : YUV
Субдискретизация насыщенности : 4:2:0
Битовая глубина : 8 бит
Тип развёртки : Прогрессивная
Метод сжатия : С потерями
Бит/(Пиксели*Кадры) : 0.452
Размер потока : 1,24 Гбайт (90%)
Библиотека кодирования : XviD 73
Аудио
Идентификатор : 1
Формат : AC-3
Формат/Информация : Audio Coding 3
Расширение режима : CM (complete main)
Параметр Endianness формата : Big
Идентификатор кодека : 2000
Продолжительность : 1 ч. 23 м.
Вид битрейта : Постоянный
Битрейт : 224 Кбит/сек
Каналы : 2 канала
Расположение каналов : Front: L R
Частота : 48,0 КГц
Частота кадров : 31,250 кадров/сек (1536 spf)
Метод сжатия : С потерями
Размер потока : 134 Мбайт (10%)
Выравнивание : Разделение по промежуткам
Продолжительность промежутка : 40 мс. (1,00 видеокадр)
Время предзагрузки промежутка : 500 мс.

Скриншот c названием фильма

[cybertorrent.ru].t44090.torrent 
Торрент: Зарегистрирован [ 2018-03-25 14:40 ] · C38CF6E8AC66B95D43E9A36B4F2F64951BB35E6A

Скачать .torrent

Скачать

14 KB

Статус: проверено
Скачан: 0 раз
Размер: 1,37 GB
Профиль [ЛС]
Показать сообщения:    

Текущее время: 21-Июл 15:08

Часовой пояс: UTC ± 0



Вы не можете начинать темы
Вы не можете отвечать на сообщения
Вы не можете редактировать свои сообщения
Вы не можете удалять свои сообщения
Вы не можете голосовать в опросах
Вы не можете прикреплять файлы к сообщениям
Вы можете скачивать файлы