Статистика раздачи
Размер:  2,08 GB   |    Зарегистрирован:  3 месяца 7 дней   |    Скачан:  0 раз

Полного источника не было: Никогда

 
   
 
 

lopster ®

Пол:
Не указан
Стаж:
3 месяца 7 дней
Сообщений:
612

Салют-7- Год выхода: 2017
Выпущено: Россия / Кинокомпания СТВ
Жанр: драма, приключения, триллер
Продолжительность: 01:46:01
Навигация по главам: Есть (16 глав)-Режиссер:
Клим Шипенко-В ролях:
Владимир Вдовиченков , Павел Деревянко , Александр Самойленко , Виталий Хаев, Оксана Фандера, Любовь Аксенова, Роман Перелыгин, Полина Руденко, Александра Серебрякова, Мария Миронова, Наталья Кудряшова, Александр Ратников-О фильме:
Космическая станция «Салют-7», находящаяся на орбите в беспилотном режиме, неожиданно перестает отвечать на сигналы центра управления полетом. Принято решение об отправке на орбиту спасательной экспедиции. Космический экипаж должен найти «мертвую» станцию и впервые в мире провести стыковку с 20-тонной глыбой неуправляемого железа.
Космонавты понимают, что шансов вернуться на Землю у них немного. Но этот рискованный путь — единственно возможный. Они должны не только проникнуть на «Салют-7», но и оживить его. Смогут ли два человека предотвратить неминуемую катастрофу и спасти планету от падения станции? Спасательная экспедиция превращается в опасное испытание. На орбите разворачивается настоящий космический детектив. Фильм основан на реальных событиях: полет к станции «Салют-7» в 1985 году считается самым сложным полетом в истории космонавтики.-Релиз групп | | КиноПоиск | Сэмпл |-Качество: WEB-DLRip-AVC [WEB_DL_1080p]
Формат: MKV
Видео: 1152x482 (2,40:1), 25,000 fps, x264 ~2365 kbps avg, 0.170 bit/pixel
Аудио: 48 kHz, AC3 Dolby Digital, 3/2 (L,C,R,l,r) + LFE ch, ~384 kbps avg-

Скриншоты

-

MediaInfo

Код:Общее
Полное имя : D:\Salut-7_2017_WEB-DLRip-AVC_iT_by_Dalemake.mkv
Формат : Matroska
Версия формата : Version 4 / Version 2
Размер файла : 2,08 Гбайт
Продолжительность : 1 ч. 46 м.
Общий поток : 2805 Кбит/сек
Название фильма : [Salut-7_2017_All Films Rutracker.org_by Dalemake]
Дата кодирования : UTC 2017-11-21 20:16:54
Программа кодирования : mkvmerge v7.8.0 ('River Man') 32bit built on Apr 3 2015 12:11:22
Библиотека кодирования : libebml v1.3.1 + libmatroska v1.4.2
DURATION : 01:46:01.088000000
NUMBER_OF_FRAMES : 198784
NUMBER_OF_BYTES : 305332224
_STATISTICS_WRITING_APP : mkvmerge v7.8.0 ('River Man') 32bit built on Apr 3 2015 12:11:22
_STATISTICS_WRITING_DATE_UTC : 2017-11-21 20:16:54
_STATISTICS_TAGS : BPS DURATION NUMBER_OF_FRAMES NUMBER_OF_BYTES
Видео
Идентификатор : 1
Формат : AVC
Формат/Информация : Advanced Video Codec
Профиль формата : High@L4.1
Параметр CABAC формата : Да
Параметр ReFrames формата : 12 кадров
Идентификатор кодека : V_MPEG4/ISO/AVC
Продолжительность : 1 ч. 46 м.
Битрейт : 2365 Кбит/сек
Ширина : 1152 пикселя
Высота : 482 пикселя
Соотношение сторон : 2,40:1
Частота кадров : 25,000 кадров/сек
Цветовое пространство : YUV
Субдискретизация насыщенности : 4:2:0
Битовая глубина : 8 бит
Тип развёртки : Прогрессивная
Бит/(Пиксели*Кадры) : 0.170
Размер потока : 1,75 Гбайт (84%)
Заголовок : [Salut-7_2017_All Films Rutracker.org_by Dalemake]
Библиотека кодирования : x264 core 146 r2538 121396c
Настройки программы : cabac=1 / ref=12 / deblock=1:-3:-2 / analyse=0x3:0x133 / me=umh / subme=11 / psy=1 / psy_rd=1.00:0.00 / mixed_ref=1 / me_range=48 / chroma_me=1 / trellis=2 / 8x8dct=1 / cqm=0 / deadzone=21,11 / fast_pskip=1 / chroma_qp_offset=-4 / threads=6 / lookahead_threads=1 / sliced_threads=0 / nr=0 / decimate=0 / interlaced=0 / bluray_compat=0 / constrained_intra=0 / bframes=11 / b_pyramid=2 / b_adapt=2 / b_bias=0 / direct=1 / weightb=1 / open_gop=0 / weightp=2 / keyint=250 / keyint_min=25 / scenecut=40 / intra_refresh=0 / rc_lookahead=60 / rc=crf / mbtree=0 / crf=18.3 / qcomp=0.60 / qpmin=0 / qpmax=69 / qpstep=4 / vbv_maxrate=50000 / vbv_bufsize=62500 / crf_max=0.0 / nal_hrd=none / filler=0 / ip_ratio=1.40 / pb_ratio=1.35 / aq=1:1.00
Default : Да
Forced : Нет
Аудио
Идентификатор : 2
Формат : AC-3
Формат/Информация : Audio Coding 3
Расширение режима : CM (complete main)
Параметр Endianness формата : Big
Идентификатор кодека : A_AC3
Продолжительность : 1 ч. 46 м.
Вид битрейта : Постоянный
Битрейт : 384 Кбит/сек
Каналы : 6 каналов
Расположение каналов : Front: L C R, Side: L R, LFE
Частота : 48,0 КГц
Битовая глубина : 16 бит
Метод сжатия : С потерями
Размер потока : 291 Мбайт (14%)
Заголовок : iTunes Russia
Язык : Russian
Default : Да
Forced : Нет
Меню
00:00:00.000 : en:Глава 1
00:06:40.400 : en:Глава 2
00:11:05.600 : en:Глава 3
00:18:02.120 : en:Глава 4
00:24:19.760 : en:Глава 5
00:30:39.960 : en:Глава 6
00:37:44.000 : en:Глава 7
00:43:57.120 : en:Глава 8
00:49:33.800 : en:Глава 9
00:56:28.360 : en:Глава 10
01:03:01.080 : en:Глава 11
01:09:37.040 : en:Глава 12
01:16:42.440 : en:Глава 13
01:24:57.280 : en:Глава 14
01:31:32.720 : en:Глава 15
01:37:10.960 : en:Глава 16
-
[cybertorrent.ru].t442.torrent 
Торрент: Зарегистрирован [ 2018-02-15 15:48 ] · A171C94E2E4A009A01C2045EF2DDA17405B88687

Скачать .torrent

Скачать

11 KB

Статус: проверено
Скачан: 0 раз
Размер: 2,08 GB
Профиль [ЛС]
Показать сообщения:    

Текущее время: 23-Май 07:21

Часовой пояс: UTC ± 0



Вы не можете начинать темы
Вы не можете отвечать на сообщения
Вы не можете редактировать свои сообщения
Вы не можете удалять свои сообщения
Вы не можете голосовать в опросах
Вы не можете прикреплять файлы к сообщениям
Вы можете скачивать файлы