Статистика раздачи
Размер:  1,46 GB   |    Зарегистрирован:  7 месяцев 1 день   |    Скачан:  0 раз

Полного источника не было: Никогда

   
 

Гость ®

Пол:
Не указан

Три девушки
Год выпуска: 2007
Страна: Россия, Азербайджан
Жанр: комедия
Продолжительность: 01:23:19.319 (124983 frames)
Субтитры: нет
Режиссер: Мурад Ибрагимбеков
В ролях: Йоахим Пауль Ассбёк, Александра Финдер, Сергей Фролов, Мурад Ибрагимбеков, Арзу Кадирбекова, Равшана Куркова, Тарана Одьявердиева, Михаил Полицеймако, Заур Теймурбеков
Описание: Вторая мировая война: из Краковского музея украдена картина. Вдогонку за подозреваемым в Северную Африку направлен сыщик. Занзарен, самопровозглашенный художник, живет приморской деревушке и постоянно пишет картины, изображающие трех обнаженных девушек на морском берегу. Расследование идет своим чередом, и действие, происходящие в Северной Африке в конце Второй мировой войны, переплетаются с событиями, имеющими место в современном Баку. Три одноклассника растут в совершенно разных мирах. Гена становится милиционером, Джамбо — вором, а Маф — лидером местной преступной группировки. Три подруги — художница Майя, студентка Плюша и Сабина, работающая компьютерщиком в спортклубе, принадлежащем Мафу, — занимаются спортивной стрельбой уже более 10 лет. Каждая из них расцветает по-своему и ищет любовь. Маф получает по электронной почте письмо с указанием «раздобыть» картину под названием «Три девушки», которую скоро должны представить на выставке в Национальном музее. Маф обманом выигрывает в нарды у своего старого школьного друга Джамбо. Чтобы загладить долг, Джамбо должен украсть полотно или же умереть — перед таким выбором ставит его Маф. Случайная встреча Майи и Джамбо у картины становится судьбоносной: девушка влюбляется и, сама того не желая, становится соучастником, решившись подделать полотно. В поисках выхода девушки решают, что Плюша должна поговорить с молодым полицейским Геной, ищущим ее расположения. Иллюзия любви, бойфренды, которые не умеют стрелять и подделки подделок подделок — чтобы выбраться из этого болота, девушки должны найти в себе мужество и вспомнить о своих занятиях стрельбой, для того чтобы обрести свободу и встретиться с Занзареном и узнать его секрет.
Качество: HDTVRip
Формат: AVI
Видео кодек: XviD
Аудио кодек: АС3
Видео: 720x400 (1.80:1), 25 fps, XviD build 73 ~2299 kbps avg, 0.32 bit/pixel
Аудио: 48 kHz, AC3 Dolby Digital, 2/0 (L,R) ch, ~192.00 kbps avg

Скриншоты

Медиаинфо

General
Complete name : E:\004 Мои раздачи\3 девушки 1,46\3_devushki_1.46_by_bm11.avi
Format : AVI
Format/Info : Audio Video Interleave
File size : 1.46 GiB
Duration : 1h 23mn
Overall bit rate : 2 501 Kbps
Director : bm11
Writing application : VirtualDubMod 1.5.10.3 | www.virtualdub-fr.org || (build 2550/release)
Video
ID : 0
Format : MPEG-4 Visual
Format profile : Advanced Simple@L5
Format settings, BVOP : 1
Format settings, QPel : No
Format settings, GMC : No warppoints
Format settings, Matrix : Custom
Codec ID : XVID
Codec ID/Hint : XviD
Duration : 1h 23mn
Bit rate : 2 299 Kbps
Width : 720 pixels
Height : 400 pixels
Display aspect ratio : 16:9
Frame rate : 25.000 fps
Color space : YUV
Chroma subsampling : 4:2:0
Bit depth : 8 bits
Scan type : Progressive
Compression mode : Lossy
Bits/(Pixel*Frame) : 0.319
Stream size : 1.34 GiB (92%)
Writing library : XviD 73
Audio
ID : 1
Format : AC-3
Format/Info : Audio Coding 3
Mode extension : CM (complete main)
Format settings, Endianness : Big
Codec ID : 2000
Duration : 1h 23mn
Bit rate mode : Constant
Bit rate : 192 Kbps
Channel(s) : 2 channels
Channel positions : Front: L R
Sampling rate : 48.0 KHz
Frame rate : 31.250 fps (1536 spf)
Compression mode : Lossy
Stream size : 114 MiB (8%)
Alignment : Split accross interleaves
Interleave, duration : 40 ms (1.00 video frame)
Interleave, preload duratio : 500 ms
[cybertorrent.ru].t442.torrent 
Торрент: Зарегистрирован [ 2019-03-18 13:08 ] · E4EAB93D8B8580C7A82BF1A7D9011A257ABA27E5

Скачать .torrent

Скачать

15 KB

Статус: проверено
Скачан: 0 раз
Размер: 1,46 GB
terms.php
Показать сообщения:    

Текущее время: 20-Окт 01:00

Часовой пояс: UTC ± 0



Вы не можете начинать темы
Вы не можете отвечать на сообщения
Вы не можете редактировать свои сообщения
Вы не можете удалять свои сообщения
Вы не можете голосовать в опросах
Вы не можете прикреплять файлы к сообщениям
Вы можете скачивать файлы