Статистика раздачи
Размер:  1,46 GB   |    Зарегистрирован:  3 месяца 9 дней   |    Скачан:  0 раз

Полного источника не было: Никогда

 
   
 
 

lopster ®

Пол:
Не указан
Стаж:
3 месяца 9 дней
Сообщений:
612

Чёрный фраер
Жанр: треш, криминал, пародия
Год выпуска: 1999
Продолжительность: 01:28:34
-
Режиссёр: Глеб Михайлов
В ролях: Глеб Михайлов, Игорь Бубенчиков, Павел Матросов, Зинаида Панова, Лидия Доротенко, Владимир Шестов
-
Описание: В городе появляется парень, одетый во все черное. Он живет на набережной, ходит в черном: черные носки, черная майка: даже трусы у него черные, и найти его невозможно, особенно ночью. Но если вы встали на его пути, он вас найдет, и тогда: заказывайте себе гроб. Он вырывает брата из лап бандитов, помогает девушке избавиться от сексуально озабоченного. Работы у «чистильщика» хватает.
-
«Черный фраер» сделан 25-летним питерским режиссером Глебом Михайловым практически сразу же по выходу «Брата-2». Повествует он о войне героя, «черного фраера», с мафией. Есть девушка, есть «брат», убийства, драки и наркотики. «Черный фраер» состоит из клише боевиков, пародий на клише, пародий на новорусское кино. Для создания атмосферы полнейшего балагана фраеровский саундтрек сделала группа «Виктор», которая уже десять лет очень серьезно и пафосно поет под «Кино». Одетый во все черное (от брюк до трусов, от майки до темных очков) мускулистый белобрысый герой, сыгранный самим режиссером, мочит и гасит всех плохих героев. Симпатичная девушка жертвует собой, но в конце и она побеждает вместе с фраером. «Брат» — лысый кривоногий урод — тоже получает свою порцию счастья.
-
Доп. информация: Гран-при международного фестиваля "Любить кино". Лучший фильм международного фестиваля "Чистые грузы". Участник международного фестиваля "Кинотавр"

-
Сэмпл: http://sendfile.su/1380668
-
Качество видео: VHSRip-AVC (Axelrod2)
Формат видео: MKV
Видео: 640x480 (4:3), 25 fps, AVC, ~2 165 Kbps, 0.282 bits/pixel
Аудио: 48 kHz, AC3 Dolby Digital, 2/0 (L,R) ch, ~192 kbps

MediaInfo

x264 [info]: frame I:1699 Avg QP:18.74 size: 44811
x264 [info]: frame P:28789 Avg QP:20.52 size: 19499
x264 [info]: frame B:102364 Avg QP:22.71 size: 7816-General
Unique ID : 205446865326445146194488734216868241413 (0x9A8FA0827FF4472E97984A8AA80AA005)
Complete name : C:\Users\ALEX\Desktop\Фильмы\Чёрный фраер.1999.RUS.VHSRip-AVC.x264.AC3.mkv
Format : Matroska
Format version : Version 4 / Version 2
File size : 1.46 GiB
Duration : 1 h 28 min
Overall bit rate : 2 358 kb/s
Movie name : Чёрный фраер
Encoded date : UTC 2017-11-27 11:17:57
Writing application : mkvmerge v8.5.2 ('Crosses') 64bit
Writing library : libebml v1.3.3 + libmatroska v1.4.4
Video
ID : 1
Format : AVC
Format/Info : Advanced Video Codec
Format profile : High@L4.1
Format settings : CABAC / 10 Ref Frames
Format settings, CABAC : Yes
Format settings, RefFrames : 10 frames
Codec ID : V_MPEG4/ISO/AVC
Duration : 1 h 28 min
Bit rate : 2 165 kb/s
Width : 640 pixels
Height : 480 pixels
Display aspect ratio : 4:3
Frame rate mode : Constant
Frame rate : 25.000 FPS
Color space : YUV
Chroma subsampling : 4:2:0
Bit depth : 8 bits
Scan type : Progressive
Bits/(Pixel*Frame) : 0.282
Stream size : 1.34 GiB (92%)
Title : Чёрный фраер
Writing library : x264 core 152 r2851 ba24899
Encoding settings : cabac=1 / ref=10 / deblock=1:-1:-1 / analyse=0x3:0x113 / me=umh / subme=10 / psy=1 / psy_rd=1.00:0.00 / mixed_ref=1 / me_range=32 / chroma_me=1 / trellis=2 / 8x8dct=1 / cqm=0 / deadzone=21,11 / fast_pskip=0 / chroma_qp_offset=-2 / threads=6 / lookahead_threads=1 / sliced_threads=0 / nr=0 / decimate=1 / interlaced=0 / bluray_compat=0 / constrained_intra=0 / bframes=8 / b_pyramid=2 / b_adapt=1 / b_bias=0 / direct=3 / weightb=1 / open_gop=0 / weightp=2 / keyint=250 / keyint_min=25 / scenecut=40 / intra_refresh=0 / rc=2pass / mbtree=0 / bitrate=2165 / ratetol=1.0 / qcomp=0.60 / qpmin=0 / qpmax=69 / qpstep=4 / cplxblur=20.0 / qblur=0.5 / ip_ratio=1.40 / pb_ratio=1.30 / aq=1:1.00
Language : Russian
Default : No
Forced : No
Audio
ID : 2
Format : AC-3
Format/Info : Audio Coding 3
Format settings, Endianness : Big
Codec ID : A_AC3
Duration : 1 h 28 min
Bit rate mode : Constant
Bit rate : 192 kb/s
Channel(s) : 2 channels
Channel positions : Front: L R
Sampling rate : 48.0 kHz
Frame rate : 31.250 FPS (1536 SPF)
Bit depth : 16 bits
Compression mode : Lossy
Stream size : 122 MiB (8%)
Title : Оригинал
Language : Russian
Service kind : Complete Main
Default : No
Forced : No

Скриншоты

[cybertorrent.ru].t446.torrent 
Торрент: Зарегистрирован [ 2018-02-15 15:48 ] · D54862E79125BBD8A61A36F9CCE5010E7E47BA64

Скачать .torrent

Скачать

15 KB

Статус: проверено
Скачан: 0 раз
Размер: 1,46 GB
Профиль [ЛС]
Показать сообщения:    

Текущее время: 25-Май 09:09

Часовой пояс: UTC ± 0



Вы не можете начинать темы
Вы не можете отвечать на сообщения
Вы не можете редактировать свои сообщения
Вы не можете удалять свои сообщения
Вы не можете голосовать в опросах
Вы не можете прикреплять файлы к сообщениям
Вы можете скачивать файлы