Статистика раздачи
Размер:  1,8 GB   |    Зарегистрирован:  3 месяца 12 дней   |    Скачан:  0 раз

Полного источника не было: Никогда

Личеров:  6  [  0 KB/s  ]  
 
   
 
 

lopster ®

Пол:
Не указан
Стаж:
3 месяца 12 дней
Сообщений:
612

Сирота казанская- Страна: Россия
Жанр: мелодрама, комедия
Год выпуска: 1997
Продолжительность: 01:18:07-Режиссер: Владимир Машков
В ролях: Елена Шевченко, Николай Фоменко, Олег Табаков, Валентин Гафт, Лев Дуров, Виктор Павлов, Татьяна Рогозина, Федор Валиков, Владимир Машков, Михаил Филипчук-Описание: Молодая учительница Настя решила после смерти матери опубликовать её не отправленное письмо некоему Павлу… Так, однажды в новогоднюю ночь, в поселке появляются три Павла — очень неординарные личности. Труднее всего приходится ее жениху Коле: одно дело сирота, а тут сразу три отца!-Релиз: -Семпл: http://sendfile.su/1381226-Тип релиза: DVB
Контейнер: TS
Видео: 720x576 (4:3) @ 786x576, 25.000 fps, AVC, ~2937 Kbps, 0.283 bits/pixel
Аудио: Русский, 48.0 KHz, MPEG-1 Audio layer 2, 2 ch, 192 Kbps

MediaInfo

General
ID : 1 (0x1)
Complete name : Сирота казанская 1997 Родное кино.ts
Format : MPEG-TS
File size : 1.80 GiB
Duration : 1 h 18 min
Overall bit rate mode : Variable
Overall bit rate : 3 294 kb/s
Video
ID : 215 (0xD7)
Menu ID : 1 (0x1)
Format : AVC
Format/Info : Advanced Video Codec
Format profile : High@L3
Format settings : CABAC / 4 Ref Frames
Format settings, CABAC : Yes
Format settings, RefFrames : 4 frames
Format settings, GOP : M=4, N=28
Codec ID : 27
Duration : 1 h 18 min
Bit rate : 2 937 kb/s
Width : 720 pixels
Height : 576 pixels
Display aspect ratio : 4:3
Frame rate : 25.000 FPS
Standard : Component
Color space : YUV
Chroma subsampling : 4:2:0
Bit depth : 8 bits
Scan type : Interlaced
Scan type, store method : Separated fields
Scan order : Top Field First
Bits/(Pixel*Frame) : 0.283
Stream size : 1.60 GiB (89%)
Color range : Limited
Color primaries : BT.601 PAL
Transfer characteristics : BT.470 System B, BT.470 System G
Matrix coefficients : BT.470 System B, BT.470 System G
Audio
ID : 315 (0x13B)
Menu ID : 1 (0x1)
Format : MPEG Audio
Format version : Version 1
Format profile : Layer 2
Codec ID : 3
Duration : 1 h 18 min
Bit rate mode : Constant
Bit rate : 192 kb/s
Channel(s) : 2 channels
Sampling rate : 48.0 kHz
Compression mode : Lossy
Stream size : 107 MiB (6%)
Language : Russian

Сравнение с DVD

DVB- -DVD-
[cybertorrent.ru].t449.torrent 
Торрент: Зарегистрирован [ 2018-02-15 15:48 ] · 5FABEF66010124D542B53C550FC57025D596EFD9

Скачать .torrent

Скачать

18 KB

Статус: проверено
Скачан: 0 раз
Размер: 1,8 GB
Профиль [ЛС]
Показать сообщения:    

Текущее время: 28-Май 08:07

Часовой пояс: UTC ± 0



Вы не можете начинать темы
Вы не можете отвечать на сообщения
Вы не можете редактировать свои сообщения
Вы не можете удалять свои сообщения
Вы не можете голосовать в опросах
Вы не можете прикреплять файлы к сообщениям
Вы можете скачивать файлы