Статистика раздачи
Размер:  1,37 GB   |    Зарегистрирован:  3 месяца 12 дней   |    Скачан:  0 раз

Полного источника не было: Никогда

Личеров:  1  [  0 KB/s  ]  
 
   
 
 

lopster ®

Пол:
Не указан
Стаж:
3 месяца 12 дней
Сообщений:
612

Комната с видом на огни
Год выпуска: 2007
Страна: Россия
Жанр: Драма, Детектив
Продолжительность: 01:28:01
Перевод: Не требуется
Режиссер: Михаил Туманишвили
В ролях: Ольга Фадеева, Борис Невзоров, Александр Клюквин, Любовь Руднева, Агриппина Стеклова...
Описание: По мотивам одноименного произведения Натальи Андреевой.
Однажды Анну предали все, кого она искренне любила и считала своими близкими людьми. Муж, коллеги, друзья отвернулись от несчастной женщины в одночасье. Отчаявшись, героиня написала предсмертную записку, указав в ней имена всех, кто довел ее до этого состояния, и решила наложить на себя руки. Однако врачам удалось спасти пациентку. Спустя некоторое время жизнь Анны наладилась: она вышла замуж во второй раз, выбросила из головы воспоминания о недругах, у нее пропало жгучее желание отомстить и... Тут началось что-то невообразимое. Один за другим стали умирать те люди, имена которых Анна когда-то упомянула в своей предсмертной записке. Первым при таинственных обстоятельствах погиб бывший супруг, а за ним - бывшие друзья...
Все раздачи фильма: Комната с видом на огни
Качество: DVDrip
Формат: .avi
Видео кодек: Xvid
Аудио кодек: AC3
Видео: XVID 704x400 25.00fps 1961Kbps [Video]
Аудио: Dolby AC3 48000Hz stereo 256Kbps [Audio]

MI

Код:Общее
Полное имя : C:\otkat\Видео\Комната с видом на огни\Komnata s vidom na ogni 2_(%).avi
Формат : AVI
Формат/Информация : Audio Video Interleave
Размер файла : 1,37 Гбайт
Продолжительность : 1 ч. 28 м.
Общий поток : 2224 Кбит/сек
Программа кодирования : VirtualDubMod 1.5.4.1 (build 2178/release)
Библиотека кодирования : VirtualDubMod build 2178/release
Видео
Идентификатор : 0
Формат : MPEG-4 Visual
Профиль формата : Advanced Simple@L5
Параметр BVOP формата : Нет
Параметр QPel формата : Нет
Параметр GMC формата : Без точки перехода
Параметр матрицы формата : Выборочная
Идентификатор кодека : XVID
Идентификатор кодека/Подсказка : XviD
Продолжительность : 1 ч. 28 м.
Битрейт : 1961 Кбит/сек
Ширина : 704 пикселя
Высота : 400 пикселей
Соотношение сторон : 16:9
Частота кадров : 25,000 кадров/сек
Цветовое пространство : YUV
Субдискретизация насыщенности : 4:2:0
Битовая глубина : 8 бит
Тип развёртки : Прогрессивная
Метод сжатия : С потерями
Бит/(Пиксели*Кадры) : 0.279
Размер потока : 1,21 Гбайт (88%)
Библиотека кодирования : XviD 1.2.0.dev47 (UTC 2006-11-01)
Аудио
Идентификатор : 1
Формат : AC-3
Формат/Информация : Audio Coding 3
Расширение режима : CM (complete main)
Параметр Endianness формата : Big
Идентификатор кодека : 2000
Продолжительность : 1 ч. 28 м.
Вид битрейта : Постоянный
Битрейт : 256 Кбит/сек
Каналы : 2 канала
Расположение каналов : Front: L R
Частота : 48,0 КГц
Частота кадров : 31,250 кадров/сек (1536 spf)
Метод сжатия : С потерями
Размер потока : 161 Мбайт (12%)
Выравнивание : Разделение по промежуткам
Продолжительность промежутка : 96 мс. (2,40 видеокадра)
Время предзагрузки промежутка : 96 мс.

Скриншоты


желает всем приятного просмотра
[cybertorrent.ru].t45.torrent 
Торрент: Зарегистрирован [ 2018-02-15 13:57 ] · 4943CF190D28D1C7D5CD7FB362FE3C0AE5990243

Скачать .torrent

Скачать

14 KB

Статус: проверено
Скачан: 0 раз
Размер: 1,37 GB
Профиль [ЛС]
Показать сообщения:    

Текущее время: 28-Май 03:02

Часовой пояс: UTC ± 0



Вы не можете начинать темы
Вы не можете отвечать на сообщения
Вы не можете редактировать свои сообщения
Вы не можете удалять свои сообщения
Вы не можете голосовать в опросах
Вы не можете прикреплять файлы к сообщениям
Вы можете скачивать файлы