Статистика раздачи
Размер:  1,29 GB   |    Зарегистрирован:  8 месяцев 13 дней   |    Скачан:  0 раз

Полного источника не было: Никогда

 
   
 
 

soda ®

Пол:
Не указан
Стаж:
9 месяцев 27 дней
Сообщений:
184

Бессонная ночь- Жанр: мелодрама
Год выпуска: 1960
Продолжительность: 01:26:09-Режиссёр: Исидор Анненский-В ролях:
Юрий Соломин, Евгений Самойлов, Людмила Чернышева, Джемма Осмоловская, Маргарита Володина, Александр Граве, Луиза Кошукова, Геннадий Карнович-Валуа, Алексей Грибов, Андрей Тутышкин, Иван Любезнов, Юрий Медведев, Инна Выходцева, Элла Нечаева, Леонид Чубаров, Вадим Захарченко, Олег Туманов
Описание:
После окончания института Павел Кауров распределён на большую сибирскую стройку. В городе Сибирске, куда он назначачен техническим руководителем порта, ему предстоит не только работать, но и разобраться в своих отношениях с двумя молодыми девушками, приехавшими вслед за ним.-Исходник | Сэмпл | Кинопоиск-Качество видео: SATRip-AVC, спасибо mersicc за исходник.
Формат видео: MKV
Видео: x264: (High@L4.1); 688@734x568, Display aspect ratio 1.292:1, 25.000 fps, 1952 Kbps
Аудио: AC-3; 16 bits 48 Khz; 2.0ch 192 Kbps; CBR

Исходник / сравнение

* В паре мест незначительные дефекты записи трансляции. ** vs. satriphttp://cybertorrent.ru/viewtopic.php?t=3409402

MediaInfo

x264 log

avs [info]: 688x568p 16:15 @ 25/1 fps (cfr)
x264 [info]: using SAR=16/15
x264 [info]: using cpu capabilities: MMX2 SSE2Fast SSSE3 SSE4.2
x264 [info]: profile High, level 4.1
x264 [info]: frame I:672 Avg QP:17.36 size: 42639
x264 [info]: frame P:26289 Avg QP:19.05 size: 23862
x264 [info]: frame B:102269 Avg QP:21.08 size: 5920
x264 [info]: consecutive B-frames: 0.9% 1.2% 5.3% 19.9% 23.1% 40.8% 6.7% 1.7% 0.3% 0.1%
x264 [info]: mb I I16..4: 2.0% 90.2% 7.8%
x264 [info]: mb P I16..4: 0.3% 16.9% 0.9% P16..4: 37.9% 29.4% 14.2% 0.3% 0.0% skip: 0.2%
x264 [info]: mb B I16..4: 0.0% 0.7% 0.1% B16..8: 41.6% 12.5% 2.7% direct: 7.8% skip:34.6% L0:38.4% L1:41.1% BI:20.4%
x264 [info]: 8x8 transform intra:92.7% inter:72.4%
x264 [info]: direct mvs spatial:100.0% temporal:0.0%
x264 [info]: coded y,uvDC,uvAC intra: 97.0% 88.6% 62.4% inter: 31.4% 35.5% 3.6%
x264 [info]: i16 v,h,dc,p: 11% 8% 11% 70%
x264 [info]: i8 v,h,dc,ddl,ddr,vr,hd,vl,hu: 15% 9% 9% 8% 11% 12% 11% 12% 12%
x264 [info]: i4 v,h,dc,ddl,ddr,vr,hd,vl,hu: 13% 8% 2% 8% 14% 15% 14% 12% 13%
x264 [info]: i8c dc,h,v,p: 40% 29% 19% 12%
x264 [info]: Weighted P-Frames: Y:37.1% UV:28.8%
x264 [info]: ref P L0: 42.9% 12.6% 14.1% 6.2% 4.6% 3.6% 3.1% 2.0% 1.9% 1.6% 1.5% 1.4% 1.3% 1.2% 1.2% 0.9%
x264 [info]: ref B L0: 86.2% 6.2% 1.9% 1.2% 0.8% 0.8% 0.6% 0.4% 0.3% 0.4% 0.3% 0.3% 0.2% 0.2% 0.1%
x264 [info]: ref B L1: 98.4% 1.6%
x264 [info]: kb/s:1952.10
-General
Unique ID : 253854665435644067693411794918849720335 (0xBEFAA152B8E3F63FBAD3655CE3ED300F)
Complete name : Бессонная ночь.1960.mkv
Format : Matroska
Format version : Version 2
File size : 1.29 GiB
Duration : 1 h 26 min
Overall bit rate : 2 146 kb/s
Encoded date : UTC 2018-03-26 07:24:01
Writing application : mkvmerge v7.8.0 ('River Man') 32bit built on Mar 27 2015 16:18:02
Writing library : libebml v1.3.1 + libmatroska v1.4.2
Video
ID : 1
Format : AVC
Format/Info : Advanced Video Codec
Format profile : High@L4.1
Format settings, CABAC : Yes
Format settings, ReFrames : 16 frames
Codec ID : V_MPEG4/ISO/AVC
Duration : 1 h 26 min
Bit rate : 1 911 kb/s
Width : 688 pixels
Height : 568 pixels
Display aspect ratio : 1.292
Frame rate mode : Constant
Frame rate : 25.000 FPS
Color space : YUV
Chroma subsampling : 4:2:0
Bit depth : 8 bits
Scan type : Progressive
Bits/(Pixel*Frame) : 0.196
Stream size : 1.15 GiB (89%)
Title : Бессонная ночь.1960
Writing library : x264 core 152 r2851kMod ba24899
Encoding settings : cabac=1 / ref=16 / deblock=1:-2:-2 / analyse=0x3:0x133 / me=umh / subme=10 / psy=1 / fade_compensate=0.00 / psy_rd=0.80:0.10 / mixed_ref=1 / me_range=24 / chroma_me=1 / trellis=2 / 8x8dct=1 / cqm=0 / deadzone=21,11 / fast_pskip=1 / chroma_qp_offset=-3 / threads=12 / lookahead_threads=2 / sliced_threads=0 / nr=0 / decimate=1 / interlaced=0 / bluray_compat=0 / constrained_intra=0 / bframes=9 / b_pyramid=2 / b_adapt=2 / b_bias=0 / direct=3 / weightb=1 / open_gop=0 / weightp=2 / keyint=250 / keyint_min=25 / scenecut=40 / intra_refresh=0 / rc_lookahead=60 / rc=crf / mbtree=0 / crf=18.0000 / qcomp=0.60 / qpmin=0 / qpmax=69 / qpstep=4 / vbv_maxrate=62500 / vbv_bufsize=78125 / crf_max=0.0 / nal_hrd=none / filler=0 / ip_ratio=1.30 / pb_ratio=1.30 / aq=1:0.90
Language : Russian
Default : Yes
Forced : No
Color range : Limited
Color primaries : BT.601 PAL
Transfer characteristics : BT.470 System B, BT.470 System G
Matrix coefficients : BT.601
Audio
ID : 2
Format : AC-3
Format/Info : Audio Coding 3
Mode extension : CM (complete main)
Format settings, Endianness : Big
Codec ID : A_AC3
Duration : 1 h 26 min
Bit rate mode : Constant
Bit rate : 192 kb/s
Channel(s) : 2 channels
Channel positions : Front: L R
Sampling rate : 48.0 kHz
Frame rate : 31.250 FPS (1536 spf)
Compression mode : Lossy
Stream size : 118 MiB (9%)
Title : AC-3; 16 bits 48 Khz; 2.0ch 192 Kbps; CBR
Language : Russian
Default : Yes
Forced : No

Скриншоты

[cybertorrent.ru].t45587.torrent 
Торрент: Зарегистрирован [ 2018-04-02 04:15 ] · F662A998B00A171028CCB2EE617C0638C29D6A48

Скачать .torrent

Скачать

13 KB

Статус: проверено
Скачан: 0 раз
Размер: 1,29 GB
Профиль [ЛС]
Показать сообщения:    

Текущее время: 15-Дек 10:14

Часовой пояс: UTC ± 0



Вы не можете начинать темы
Вы не можете отвечать на сообщения
Вы не можете редактировать свои сообщения
Вы не можете удалять свои сообщения
Вы не можете голосовать в опросах
Вы не можете прикреплять файлы к сообщениям
Вы можете скачивать файлы
Torrents24.ru открытый BitTorrent Torrents24.pl открытый BitTorrent CyberTorrent.ru открытый BitTorrent BtList.ru рейтинг BitTorrent трекеров Яндекс.Метрика