Статистика раздачи
Размер:  1,37 GB   |    Зарегистрирован:  3 месяца 12 дней   |    Скачан:  0 раз
Сидов:  261  [  0 KB/s  ]   Личеров:  6  [  0 KB/s  ]  
 
   
 
 

lopster ®

Пол:
Не указан
Стаж:
3 месяца 12 дней
Сообщений:
612

Из Уфы с любовью
Жанр: комедия
Год выпуска: 2017
Продолжительность: 01:30:56
Субтитры: русские (только на башкирскую речь)
Режиссёр: Айнур Аскаров
В ролях: Азат Зиганшин, Алмас Амиров, Анастасия Речистер, Аскар Нагаев, Ахат Хусаинов, Гульмира Исмагилова, Данил Гуфранов, Зульхиза Галикиева, Идель Аралбаев, Ильсияр Газетдинова, Михаил Бреслер, Никита Калмыков, Полина Смыковская, Полина Шабаева, Тамара Адамова, Фардуна Касимова, Хурматулла Утяшев, Эльвира Шрайнер, Эмиль Амиров, Юлия Галяутдинова

Описание: Из «Уфы с любовью» – удивительное, веселое и романтичное путешествие молодого башкира Урала, который вернулся из армии. Он узнает, что его невеста не только нашла другого жениха, но и продала старое обручальное кольцо, которое передавалось в семье Урала из поколения в поколение. Теперь, чтобы вернуть фамильную реликвию, ему придется перевернуть весь город.Взгляд на счастливую жизнь у Урала простой – хороший дом, любимая жена и много детей. С самого детства он был уверен, что женится на соседке Гульназ, раз уж укусил ее за ухо – по древнему обычаю. Но девчонка не дождалась солдата, а соблазны города настолько вскружили ей голову, что Гульназ сдала в антикварку обручальное кольцо – символ огромного доверия Урала. Парень возвращается из армии и собирается разыскать кольцо, но его уже купила некая незнакомка. Уралу предстоит вломиться на чужую свадьбу, подраться с болельщиками, сорвать конкурс песен и даже стать организатором ограбления…Фильм «Из Уфы с любовью», хороший пример молодого российского кино из регионов, которое снималось без всяких надежд на прокат, но в итоге на большие экраны вышло и порадовало всех, кто устал от глянцевых фильмов о Москве или Петербурге.

Sample
Качество видео: WEBRip - Files-х
Формат видео: AVI
Видео: 720x288 (2.50:1), 25 fps, XviD build 73 ~1954 kbps avg, 0.38 bit/pixel
Аудио: 48 kHz, AC3 Dolby Digital, 2/0 (L,R) ch, ~192 kbps

MediaInfo

General
Complete name : D:\Iz.Ufy.s.ljubovju.2017.WEBRip. Files-x.avi
Format : AVI
Format/Info : Audio Video Interleave
File size : 1.37 GiB
Duration : 1h 30mn
Overall bit rate : 2 157 Kbps
Writing application : VirtualDubMod 1.5.10.3 | www.virtualdub-fr.org || (build 2550/release)
Writing library : VirtualDubMod build 2550/release
Video
ID : 0
Format : MPEG-4 Visual
Format profile : Advanced Simple@L5
Format settings, BVOP : 1
Format settings, QPel : No
Format settings, GMC : No warppoints
Format settings, Matrix : Custom
Codec ID : XVID
Codec ID/Hint : XviD
Duration : 1h 30mn
Bit rate : 1 955 Kbps
Width : 720 pixels
Height : 288 pixels
Display aspect ratio : 2.500
Frame rate : 25.000 fps
Color space : YUV
Chroma subsampling : 4:2:0
Bit depth : 8 bits
Scan type : Progressive
Compression mode : Lossy
Bits/(Pixel*Frame) : 0.377
Stream size : 1.24 GiB (91%)
Writing library : XviD 73
Audio
ID : 1
Format : AC-3
Format/Info : Audio Coding 3
Mode extension : CM (complete main)
Format settings, Endianness : Big
Codec ID : 2000
Duration : 1h 30mn
Bit rate mode : Constant
Bit rate : 192 Kbps
Channel count : 2 channels
Channel positions : Front: L R
Sampling rate : 48.0 KHz
Bit depth : 16 bits
Compression mode : Lossy
Stream size : 125 MiB (9%)
Alignment : Split accross interleaves
Interleave, duration : 40 ms (1.00 video frame)
Interleave, preload duration : 500 ms

Скриншот c названием фильма

Скриншоты


[cybertorrent.ru].t457.torrent 
Торрент: Зарегистрирован [ 2018-02-15 15:48 ] · 6D183829B5F025A623C8214D9655809BFFD13389

Скачать .torrent

Скачать

14 KB

Статус: проверено
Скачан: 0 раз
Размер: 1,37 GB
Профиль [ЛС]
Показать сообщения:    

Текущее время: 28-Май 08:11

Часовой пояс: UTC ± 0



Вы не можете начинать темы
Вы не можете отвечать на сообщения
Вы не можете редактировать свои сообщения
Вы не можете удалять свои сообщения
Вы не можете голосовать в опросах
Вы не можете прикреплять файлы к сообщениям
Вы можете скачивать файлы