Статистика раздачи
Размер:  744 MB   |    Зарегистрирован:  3 месяца 12 дней   |    Скачан:  0 раз

Полного источника не было: Никогда

Личеров:  6  [  0 KB/s  ]  
 
   
 
 

lopster ®

Пол:
Не указан
Стаж:
3 месяца 12 дней
Сообщений:
612

Матильда
Страна: Россия
Студия: ТПО Рок
Жанр: драма, история, триллер
Год выпуска: 2017
Продолжительность: 01:48:37
Субтитры: нет-Режиссер: Алексей Учитель-В ролях: Михалина Ольшанска, Ларс Айдингер, Данила Козловский, Луиза Вольфрам, Ингеборга Дапкунайте, Сергей Гармаш, Евгений Миронов, Григорий Добрыгин, Галина Тюнина, Виталий Коваленко, Виталий Кищенко, Томас Остермайер, Сара Штерн, Гэ Ян, Сергей Малюгов, Степан Пивкин, Константин Желдин, Роман Шаляпин-Описание: Последний русский император и балерина, утвердившая славу русского балета. Страсть, которая могла изменить русскую историю. Любовь, ставшая легендой. В жизни каждого человека случаются несколько дней, которые могут изменить её навсегда. Когда происходит самое главное. Ты оборачиваешься на голос любви. И делаешь выбор. Но если властитель империи полюбит танцовщицу, сводящую с ума своей красотой… Успенский собор, Кремль, Ходынское поле, царские дворцы, сцены Мариинского и Большого театров — там, где бьется сердце вечной России.-Тип релиза: WEB-DLRip
Контейнер: AVI
Видео: 688x288 (2.39:1), 23.976 fps, XviD build 73 ~820 kbps avg, 0.17 bit/pixel
Аудио: 48 kHz, MPEG Layer 3, 2 ch, ~128.00 kbps avg-Скачать сэмпл-

MediaInfo

Код:Format : AVI
Format/Info : Audio Video Interleave
File size : 744 MiB
Duration : 1 h 48 min
Overall bit rate : 958 kb/s
Writing application : VirtualDubMod 1.5.10.3 | www.virtualdub-fr.org || (build 2550/release)
Writing library : VirtualDubMod build 2550/release
Video
ID : 0
Format : MPEG-4 Visual
Format profile : Advanced Simple@L5
Format settings : BVOP1
Format settings, BVOP : 1
Format settings, QPel : No
Format settings, GMC : No warppoints
Format settings, Matrix : Default (H.263)
Codec ID : XVID
Codec ID/Hint : XviD
Duration : 1 h 48 min
Bit rate : 821 kb/s
Width : 688 pixels
Height : 288 pixels
Display aspect ratio : 2.40:1
Frame rate : 23.976 (24000/1001) FPS
Color space : YUV
Chroma subsampling : 4:2:0
Bit depth : 8 bits
Scan type : Progressive
Compression mode : Lossy
Bits/(Pixel*Frame) : 0.173
Stream size : 638 MiB (86%)
Writing library : XviD 73
Audio
ID : 1
Format : MPEG Audio
Format version : Version 1
Format profile : Layer 3
Codec ID : 55
Codec ID/Hint : MP3
Duration : 1 h 48 min
Bit rate mode : Constant
Bit rate : 128 kb/s
Channel(s) : 2 channels
Sampling rate : 48.0 kHz
Compression mode : Lossy
Stream size : 99.5 MiB (13%)
Alignment : Aligned on interleaves
Interleave, duration : 42 ms (1.00 video frame)
Interleave, preload duratio : 504 ms
Writing library : LAME3.99r
Encoding settings : -m s -V 4 -q 2 -lowpass 17 -b 128

Скриншоты

[cybertorrent.ru].t458.torrent 
Торрент: Зарегистрирован [ 2018-02-15 15:48 ] · 8A3FF41ED3F8CF223CCEAE6F0774FC7E2D2620C6

Скачать .torrent

Скачать

15 KB

Статус: проверено
Скачан: 0 раз
Размер: 744 MB
Профиль [ЛС]
Показать сообщения:    

Текущее время: 28-Май 03:18

Часовой пояс: UTC ± 0



Вы не можете начинать темы
Вы не можете отвечать на сообщения
Вы не можете редактировать свои сообщения
Вы не можете удалять свои сообщения
Вы не можете голосовать в опросах
Вы не можете прикреплять файлы к сообщениям
Вы можете скачивать файлы