Статистика раздачи
Размер:  4,28 GB   |    Зарегистрирован:  1 месяц 19 дней   |    Скачан:  0 раз

Полного источника не было: Никогда

 
   
 
 

Laim ®

Пол:
Не указан
Стаж:
3 месяца 5 дней
Сообщений:
280

Механизм / O Mecanismo / The Mechanism
Год выпуска: 2018
Страна: Бразилия
Жанр: Триллер, драма, криминал
Продолжительность: ~00:45:00
Перевод: Профессиональный (двухголосый закадровый) Gears Media
Режиссёр: Фелипе Прадо, Жозе Падилья, Маркус Прадо
В ролях: Селтон Мелу, Каролине Абрас, Алессандра Колаццанти, Энрике Диас, Джонатан Хаагенсен, Леонардо Медейрос, Отто Жуниор, Сюзана Рибейро, Антонио Сабойа, Ли Тейлор
Описание: Группа следователей пытается раскрыть внутренние процессы крупнейшей коррупционной схемы в истории. Однако это расследование будет иметь последствия для всех, кто к нему причастен, — в том числе для тех, кто находится на стороне закона.
Ссылка на предыдущие и альтернативные раздачи: http://cybertorrent.ru/tracker.php?nm=O+Mecanismo
Сэмпл: http://multi-up.com/1192544
Качество: WEBRip
Формат: AVI
Видео: XviD, 720x400 at 23.976 fps, ~1500 kbps avg
Аудио1: Russian, MP3, 48 kHz, 2 ch, 128 kbps
Аудио2: English, MP3, 48 kHz, 2 ch, 128 kbps
Субтитры: нет
Реклама: аудио (два раза, в начале и конце, по 12 сек.)

MediaInfo

Format : AVI
Format/Info : Audio Video Interleave
File size : 563 MiB
Duration : 44 min 31 s
Overall bit rate : 1 769 kb/s
Writing application : Lavf56.30.100
Video
ID : 0
Format : xvid
Codec ID : xvid
Duration : 44 min 30 s
Bit rate : 1 493 kb/s
Width : 720 pixels
Height : 400 pixels
Display aspect ratio : 16:9
Frame rate : 23.976 (24000/1001) FPS
Scan type : Progressive
Bits/(Pixel*Frame) : 0.216
Stream size : 475 MiB (84%)
Audio #1
ID : 1
Format : MPEG Audio
Format version : Version 1
Format profile : Layer 3
Mode : Joint stereo
Mode extension : MS Stereo
Codec ID : 55
Codec ID/Hint : MP3
Duration : 44 min 31 s
Bit rate mode : Constant
Bit rate : 128 kb/s
Channel(s) : 2 channels
Sampling rate : 48.0 kHz
Compression mode : Lossy
Stream size : 40.8 MiB (7%)
Alignment : Aligned on interleaves
Interleave, duration : 24 ms (0.58 video frame)
Interleave, preload duratio : 24 ms
Title : Gears Media
Writing library : LAME3.99.5ЄЄЄЄЄЄЄЄЄЄ
Audio #2
ID : 2
Format : MPEG Audio
Format version : Version 1
Format profile : Layer 3
Mode : Joint stereo
Mode extension : MS Stereo
Codec ID : 55
Codec ID/Hint : MP3
Duration : 44 min 31 s
Bit rate mode : Constant
Bit rate : 128 kb/s
Channel(s) : 2 channels
Sampling rate : 48.0 kHz
Compression mode : Lossy
Stream size : 40.8 MiB (7%)
Alignment : Aligned on interleaves
Interleave, duration : 24 ms (0.58 video frame)
Interleave, preload duratio : 24 ms

Скриншоты




Внимание! Раздача ведётся путём добавления новых серий

Внимание! Раздача ведётся путём добавления новых серий; при каждом добавлении создаётся новый торрент. Чтобы начать докачку новой серии, пользователям необходимо сделать следующее:
(1) остановить скачивание,
(2) удалить старый торрент у себя из клиента (старые серии удалять не надо),
(3) скачать новый торрент и запустить его у себя в клиенте вместо старого, при этом указать клиенту путь в старую папку куда и должно происходить скачивание новых серий.
Ваш клиент при этом должен произвести хеширование (проверку) старой папки (если не производит сам - помогите ему сделать это), и будет докачивать только те серии которых у вас ещё нет. Старые серии при этом не удаляются, а продолжают раздаваться!
Eсли вы уже удалили старые серии, то предотвратить повторную закачку старых серий можно, отжав галочку в соответствующих местах при запуске нового торрента. По возможности, желательно не удалять старые серии как можно дольше чтобы релизёр не столько продолжал раздавать старые серии, а смог сконцентрироваться на новых.
[cybertorrent.ru].t45852.torrent 
Торрент: Зарегистрирован [ 2018-04-02 08:00 ] · 713098FCD1477FC477E73522A6888C1FECC4B8D6

Скачать .torrent

Скачать

12 KB

Статус: проверено
Скачан: 0 раз
Размер: 4,28 GB
Профиль [ЛС]
Показать сообщения:    

Текущее время: 21-Май 22:42

Часовой пояс: UTC ± 0



Вы не можете начинать темы
Вы не можете отвечать на сообщения
Вы не можете редактировать свои сообщения
Вы не можете удалять свои сообщения
Вы не можете голосовать в опросах
Вы не можете прикреплять файлы к сообщениям
Вы можете скачивать файлы