Статистика раздачи
Размер:  700 MB   |    Зарегистрирован:  3 месяца 7 дней   |    Скачан:  0 раз

Полного источника не было: Никогда

Личеров:  1  [  0 KB/s  ]  
 
   
 
 

lopster ®

Пол:
Не указан
Стаж:
3 месяца 7 дней
Сообщений:
612

СНЕЖНЫЙ АНГЕЛ
Год выпуска: 2008
Жанр: Комедия
Продолжительность: 01:41:05
Режиссер: Александр Карпиловский
В ролях: Александр Балуев, Дмитрий Певцов, Виктория Толстоганова
Описание: Одинокая московская девушка каждый новый год уезжает в Санкт-Петербург
-только чтобы не встречать праздник с подругами,которые пытаются выдать
её замуж.
Но в этом году всё вышло иначе. В дверь позвонили: на пороге стоял... снежный ангел...
Все раздачи фильма: Снежный ангел
Качество: DVDRip
Формат: AVI
Видео кодек: XviD
Аудио кодек: MP3
Видео: 640x352 (1.82:1), 25 fps, XviD build 47 ~837 kbps avg, 0.15 bit/pixel
Аудио: 48 kHz, MPEG Layer 3, 2 ch, ~116.87 kbps avg

MI

Код:Общее
Полное имя : C:\otkat\Видео\Снежный ангел\СНЕЖНЫЙ АНГЕЛ.avi
Формат : AVI
Формат/Информация : Audio Video Interleave
Размер файла : 700 Мбайт
Продолжительность : 1 ч. 41 м.
Режим общего битрейта : Переменный
Общий поток : 968 Кбит/сек
Программа кодирования : VirtualDubMod 1.5.4.1 (build 2178/release)
Библиотека кодирования : VirtualDubMod build 2178/release
Видео
Идентификатор : 0
Формат : MPEG-4 Visual
Профиль формата : Advanced Simple@L5
Параметр BVOP формата : 1
Параметр QPel формата : Нет
Параметр GMC формата : Без точки перехода
Параметр матрицы формата : Выборочная
Идентификатор кодека : XVID
Идентификатор кодека/Подсказка : XviD
Продолжительность : 1 ч. 41 м.
Битрейт : 839 Кбит/сек
Ширина : 640 пикселей
Высота : 352 пикселя
Соотношение сторон : 16:9
Частота кадров : 25,000 кадров/сек
Цветовое пространство : YUV
Субдискретизация насыщенности : 4:2:0
Битовая глубина : 8 бит
Тип развёртки : Прогрессивная
Метод сжатия : С потерями
Бит/(Пиксели*Кадры) : 0.149
Размер потока : 606 Мбайт (87%)
Библиотека кодирования : XviD 1.2.0.dev47 (UTC 2006-11-01)
Аудио
Идентификатор : 1
Формат : MPEG Audio
Версия формата : Version 1
Профиль формата : Layer 3
Режим : Joint stereo
Идентификатор кодека : 55
Идентификатор кодека/Подсказка : MP3
Продолжительность : 1 ч. 41 м.
Вид битрейта : Переменный
Битрейт : 117 Кбит/сек
Номинальный битрейт : 128 Кбит/сек
Каналы : 2 канала
Частота : 48,0 КГц
Метод сжатия : С потерями
Размер потока : 84,5 Мбайт (12%)
Выравнивание : Соединение по промежуткам
Продолжительность промежутка : 24 мс. (0,60 видеокадр)
Время предзагрузки промежутка : 660 мс.
Библиотека кодирования : LAME3.97
Настройки программы : -m j -V 4 -q 2 -lowpass 17 --abr 128

Скриншоты

[cybertorrent.ru].t46.torrent 
Торрент: Зарегистрирован [ 2018-02-15 13:57 ] · 01648F73623BD8557DF7A03E9E5BED94879A3135

Скачать .torrent

Скачать

14 KB

Статус: проверено
Скачан: 0 раз
Размер: 700 MB
Профиль [ЛС]
Показать сообщения:    

Текущее время: 23-Май 07:20

Часовой пояс: UTC ± 0



Вы не можете начинать темы
Вы не можете отвечать на сообщения
Вы не можете редактировать свои сообщения
Вы не можете удалять свои сообщения
Вы не можете голосовать в опросах
Вы не можете прикреплять файлы к сообщениям
Вы можете скачивать файлы