Статистика раздачи
Размер:  1,46 GB   |    Зарегистрирован:  3 месяца 7 дней   |    Скачан:  0 раз

Полного источника не было: Никогда

 
   
 
 

lopster ®

Пол:
Не указан
Стаж:
3 месяца 7 дней
Сообщений:
612

Как Витька Чеснок вёз Лёху Штыря в дом инвалидов- Год выпуска: 2017
Страна: Россия
Студия: ВГИК-Дебют
Жанр: драма, криминал-Продолжительность: 01:29:47-Режиссёр: Александр Хант
В ролях: Евгений Ткачук, Алексей Серебряков, Андрей Смирнов, Наталия Вдовина, Ольга Лапшина, Ольга Обласова, Алина Насибуллина, Роман Шаляпин, Игорь Гаспарян, Константин Гацалов, Дмитрий Архангельский, Георгий Кудренко, Сергей Букреев, Галина Лебедева, Александр Велескевич, Ксения Орлова, Ольга Воронина, Михаил Тройник, Сергей Грищенко, Константин Григорьев, Феодор Перетрухин, Сергей Коновалов, Александра Ревенко и др.-Описание: Картина расскажет о 27-летнем Витьке Чесноке, парне с детдомовским прошлым, который мечтает сбежать от «мешающих» ему жить жены и сына. Недолюбленный в детстве и очерствевший сердцем Витька Чеснок встречает своего отца-уголовника, а теперь еще и калеку. Витька решает отвезти отца в дом инвалидов, не подозревая, какие приключения и опасности ждут их по дороге.-КиноПоиск | IMDb | Sample-Качество: BDRip-AVC (Источник: GARLIC_RUS_BLUEBIRD)
Формат: MKV
Видео: x264, 1088x612 (16:9), 24.000 fps, ~1940 kbps avg, 0.121 bit/pixel
Аудио: Русский 48.0 KHz, AC3, 3/2 (L,C,R,l,r) + LFE ch, ~384.00 kbps avg-

Релиз


Рип - whip93.

Сравнение скриншотов

Source vs. Encode

MediaInfo | x264 log

x264 log

---[Information] [17.01.2018 11:01:34] raw [info]: 1088x612p 1:1 @ 24/1 fps (cfr)
---[Information] [17.01.2018 11:01:34] x264 [info]: using SAR=1/1
---[Information] [17.01.2018 11:01:34] x264 [info]: using cpu capabilities: MMX2 SSE2Fast SSSE3 SSE4.2 AVX
---[Information] [17.01.2018 11:01:34] x264 [info]: profile High, level 4.1
---[Information] [17.01.2018 15:31:53] x264 [info]: frame I:837 Avg QP:17.66 size: 89818
---[Information] [17.01.2018 15:31:53] x264 [info]: frame P:28686 Avg QP:21.20 size: 22330
---[Information] [17.01.2018 15:31:53] x264 [info]: frame B:99770 Avg QP:23.76 size: 5906
---[Information] [17.01.2018 15:31:53] x264 [info]: consecutive B-frames: 1.9% 3.4% 7.0% 24.8% 22.0% 27.7% 8.2% 1.3% 2.1% 0.4% 0.4% 0.1% 0.4% 0.1% 0.3%
---[Information] [17.01.2018 15:31:53] x264 [info]: mb I I16..4: 7.1% 70.4% 22.5%
---[Information] [17.01.2018 15:31:53] x264 [info]: mb P I16..4: 0.9% 6.6% 1.3% P16..4: 51.4% 22.4% 7.0% 2.0% 0.3% skip: 8.1%
---[Information] [17.01.2018 15:31:53] x264 [info]: mb B I16..4: 0.1% 0.9% 0.2% B16..8: 37.0% 11.2% 1.4% direct: 2.7% skip:46.5% L0:41.7% L1:48.5% BI: 9.8%
---[Information] [17.01.2018 15:31:53] x264 [info]: 8x8 transform intra:73.7% inter:67.0%
---[Information] [17.01.2018 15:31:53] x264 [info]: coded y,uvDC,uvAC intra: 76.3% 79.7% 50.3% inter: 14.3% 12.1% 2.3%
---[Information] [17.01.2018 15:31:53] x264 [info]: i16 v,h,dc,p: 26% 16% 3% 55%
---[Information] [17.01.2018 15:31:53] x264 [info]: i8 v,h,dc,ddl,ddr,vr,hd,vl,hu: 12% 8% 6% 9% 13% 12% 14% 12% 14%
---[Information] [17.01.2018 15:31:53] x264 [info]: i4 v,h,dc,ddl,ddr,vr,hd,vl,hu: 28% 8% 7% 6% 11% 10% 11% 8% 10%
---[Information] [17.01.2018 15:31:53] x264 [info]: i8c dc,h,v,p: 32% 28% 21% 19%
---[Information] [17.01.2018 15:31:53] x264 [info]: Weighted P-Frames: Y:1.7% UV:0.7%
---[Information] [17.01.2018 15:31:53] x264 [info]: ref P L0: 47.9% 6.4% 15.5% 6.7% 5.5% 4.3% 4.0% 2.3% 2.1% 1.8% 1.7% 1.8% 0.0% 0.0%
---[Information] [17.01.2018 15:31:53] x264 [info]: ref B L0: 74.1% 10.1% 5.3% 2.7% 2.1% 1.7% 1.6% 0.9% 0.8% 0.5% 0.2%
---[Information] [17.01.2018 15:31:53] x264 [info]: ref B L1: 94.3% 5.7%
---[Information] [17.01.2018 15:31:53] x264 [info]: kb/s:1937.85
---[Information] [17.01.2018 15:31:53] encoded 129293 frames, 7.97 fps, 1937.85 kb/s
General
Unique ID : 37435040347662404598677684369624134288 (0x1C29B9FD0CDEB1A53BBD3F391F5FF290)
Complete name : F:\Как.Витька.Чеснок.вёз.Лёху.Штыря.в.дом.инвалидов.2017.BDRip.DD5.1.x264.-whip93.mkv
Format : Matroska
Format version : Version 4 / Version 2
File size : 1.46 GiB
Duration : 1h 29mn
Overall bit rate : 2 324 Kbps
Movie name : Как Витька Чеснок вёз Лёху Штыря в дом инвалидов (2017) - Release by whip93
Encoded date : UTC 2018-01-17 11:46:45
Writing application : mkvmerge v19.0.0 ('Brave Captain') 64-bit
Writing library : libebml v1.3.5 + libmatroska v1.4.8
DURATION : 01:29:47.200000000
NUMBER_OF_FRAMES : 168350
NUMBER_OF_BYTES : 258585600
_STATISTICS_WRITING_APP : mkvmerge v19.0.0 ('Brave Captain') 64-bit
_STATISTICS_WRITING_DATE_UT : 2018-01-17 11:46:45
_STATISTICS_TAGS : BPS DURATION NUMBER_OF_FRAMES NUMBER_OF_BYTES
Video
ID : 1
Format : AVC
Format/Info : Advanced Video Codec
Format profile : High@L4.1
Format settings, CABAC : Yes
Format settings, ReFrames : 12 frames
Codec ID : V_MPEG4/ISO/AVC
Duration : 1h 29mn
Bit rate : 1 940 Kbps
Width : 1 088 pixels
Height : 612 pixels
Display aspect ratio : 16:9
Frame rate mode : Constant
Frame rate : 24.000 fps
Color space : YUV
Chroma subsampling : 4:2:0
Bit depth : 8 bits
Scan type : Progressive
Bits/(Pixel*Frame) : 0.121
Stream size : 1.19 GiB (81%)
Title : Encoded by whip93
Writing library : x264 core 152 r2851 ba24899
Encoding settings : cabac=1 / ref=12 / deblock=1:-3:-3 / analyse=0x3:0x133 / me=umh / subme=11 / psy=1 / psy_rd=1.00:0.08 / mixed_ref=0 / me_range=64 / chroma_me=1 / trellis=2 / 8x8dct=1 / cqm=0 / deadzone=21,11 / fast_pskip=0 / chroma_qp_offset=-1 / threads=12 / lookahead_threads=3 / sliced_threads=0 / nr=0 / decimate=1 / interlaced=0 / bluray_compat=0 / constrained_intra=0 / bframes=14 / b_pyramid=2 / b_adapt=2 / b_bias=0 / direct=1 / weightb=1 / open_gop=0 / weightp=2 / keyint=240 / keyint_min=24 / scenecut=40 / intra_refresh=0 / rc_lookahead=90 / rc=2pass / mbtree=1 / bitrate=1940 / ratetol=1.0 / qcomp=0.72 / qpmin=0 / qpmax=69 / qpstep=4 / cplxblur=20.0 / qblur=0.5 / vbv_maxrate=50000 / vbv_bufsize=62500 / nal_hrd=none / filler=0 / ip_ratio=1.40 / aq=1:0.80 / zones=0,429,q=26/3020,3147,q=26/125583,129292,q=26
Language : Russian
Default : Yes
Forced : No
Color range : Limited
Color primaries : BT.709
Transfer characteristics : BT.709
Matrix coefficients : BT.709
Audio
ID : 2
Format : AC-3
Format/Info : Audio Coding 3
Mode extension : CM (complete main)
Format settings, Endianness : Big
Codec ID : A_AC3
Duration : 1h 29mn
Bit rate mode : Constant
Bit rate : 384 Kbps
Channel(s) : 6 channels
Channel positions : Front: L C R, Side: L R, LFE
Sampling rate : 48.0 KHz
Compression mode : Lossy
Stream size : 247 MiB (17%)
Language : Russian
Default : Yes
Forced : No
Menu
00:00:00.000 : ru:Глава 1
00:00:19.375 : ru:Глава 2
00:10:09.083 : ru:Глава 3
00:23:03.750 : ru:Глава 4
00:34:10.500 : ru:Глава 5
00:44:36.250 : ru:Глава 6
00:54:35.166 : ru:Глава 7
01:07:18.916 : ru:Глава 8
01:16:00.166 : ru:Глава 9

Скриншоты

-
[cybertorrent.ru].t466.torrent 
Торрент: Зарегистрирован [ 2018-02-15 15:48 ] · 1883C25F67EB298B878CF5675BA130DB430AF7FD

Скачать .torrent

Скачать

59 KB

Статус: проверено
Скачан: 0 раз
Размер: 1,46 GB
Профиль [ЛС]
Показать сообщения:    

Текущее время: 22-Май 23:00

Часовой пояс: UTC ± 0



Вы не можете начинать темы
Вы не можете отвечать на сообщения
Вы не можете редактировать свои сообщения
Вы не можете удалять свои сообщения
Вы не можете голосовать в опросах
Вы не можете прикреплять файлы к сообщениям
Вы можете скачивать файлы