Статистика раздачи
Размер:  700 MB   |    Зарегистрирован:  8 месяцев 10 дней   |    Скачан:  0 раз

Полного источника не было: Никогда

 
   
 
 

kersti ®

Пол:
Не указан
Стаж:
10 месяцев
Сообщений:
174

Дикая природа: Маскировка и защитная окраска / Wild Survivors: Camouflage and mimicry
Дата/Год выпуска: 1989
Страна: США
Жанр: документальный
Продолжительность: 00:42:29
Перевод: Авторский (одноголосый закадровый)
Доп. инфо о переводе: Александр Кашкин (ранний)
Режиссер: Майк Беркхед / Mike Birdhead
Описание: Научно-популярный фильм, в котором рассказывается о применении защитной окраски как животными, так и растениями. За долгий период развития животного и растительного миров у различных видов выработались различные методы маскировки, применяемые ими и для защиты, и для нападения. Животные могут использовать для этого смену окраски для того, чтобы спрятаться среди растений или для того, чтобы походить на других животных.
В фильме приведены различные примеры маскировки для растений, насекомых, млекопитающих и рыб. Особенно интересны кадры, где можно видеть львов, шакалов, газелей. Зритель может видеть примеры той борьбы, которая происходит в животном мире, и которая определяет сильнейших - те виды, которые выживают и сохраняются.
Доп. информация: Оцифровка VHS из коллекции ALEX150379
Релиз
Сэмпл: https://yadi.sk/i/o_7Pse-D3TARDP
качество: VHSRip
формат: AVI
Видео: 704x528 (1.33:1), 25 fps, XviD build 73 ~2099 kbps avg, 0.23 bit/pixel
Аудио: 48 kHz, AC3 Dolby Digital, 2/0 (L,R) ch, ~192 kbps

Скриншоты


MediaInfo

Дикая природа - Wild Survivors [by Edich2].avi
Format : AVI
Format/Info : Audio Video Interleave
File size : 700 MiB
Duration : 42 min 29 s
Overall bit rate : 2 302 kb/s
Movie name : Дикая природа - Wild Survivors [by Edich2]
Director : by Edich2
Writing application : VirtualDubMod 1.5.10.3 | www.virtualdub-fr.org || (build 2550/release)
Comment : RuTracker.org
Video
ID : 0
Format : MPEG-4 Visual
Format profile : Advanced Simple@L5
Format settings, BVOP : 2
Format settings, QPel : No
Format settings, GMC : No warppoints
Format settings, Matrix : Custom
Codec ID : XVID
Codec ID/Hint : XviD
Duration : 42 min 29 s
Bit rate : 2 100 kb/s
Width : 704 pixels
Height : 528 pixels
Display aspect ratio : 4:3
Frame rate : 25.000 FPS
Color space : YUV
Chroma subsampling : 4:2:0
Bit depth : 8 bits
Scan type : Progressive
Compression mode : Lossy
Bits/(Pixel*Frame) : 0.226
Stream size : 638 MiB (91%)
Writing library : XviD 73
Audio
ID : 1
Format : AC-3
Format/Info : Audio Coding 3
Format settings, Endianness : Big
Codec ID : 2000
Duration : 42 min 29 s
Bit rate mode : Constant
Bit rate : 192 kb/s
Channel(s) : 2 channels
Channel positions : Front: L R
Sampling rate : 48.0 kHz
Frame rate : 31.250 FPS (1536 spf)
Bit depth : 16 bits
Compression mode : Lossy
Stream size : 58.4 MiB (8%)
Alignment : Split accross interleaves
Interleave, duration : 40 ms (1.00 video frame)
Interleave, preload duratio : 500 ms
Service kind : Complete Main
[cybertorrent.ru].t46664.torrent 
Торрент: Зарегистрирован [ 2018-04-06 06:55 ] · 6400AD52F611645F13247C4243A6A92A53EDA981

Скачать .torrent

Скачать

14 KB

Статус: проверено
Скачан: 0 раз
Размер: 700 MB
Профиль [ЛС]
Показать сообщения:    

Текущее время: 16-Дек 09:18

Часовой пояс: UTC ± 0



Вы не можете начинать темы
Вы не можете отвечать на сообщения
Вы не можете редактировать свои сообщения
Вы не можете удалять свои сообщения
Вы не можете голосовать в опросах
Вы не можете прикреплять файлы к сообщениям
Вы можете скачивать файлы
Torrents24.ru открытый BitTorrent Torrents24.pl открытый BitTorrent CyberTorrent.ru открытый BitTorrent BtList.ru рейтинг BitTorrent трекеров Яндекс.Метрика