BitTorrent клиенты



Ловкая рука, ловкий меч / Witty Hand Witty Sword(Ling long yu shao jian ling long) (Пао Сю-Ли / Hsueh Li Pao) [1978, Тайвань, Боевые искусства, DVDRip] VO

Ответить на тему
Статистика раздачи
Размер:  804 MB   |    Зарегистрирован:  7 месяцев 13 дней   |    Скачан:  1 раз

Полного источника не было: 6 месяцев 2 дня

 
   
 
 
Автор Сообщение

StartSoft ®

Пол: Не указан

Стаж: 1 год

Сообщений: 1587

Создавать темы 09-Июл-2018 16:47

[Цитировать]

Ловкая рука, ловкий меч / Witty Hand Witty Sword(Ling long yu shao jian ling long)
Страна: Тайвань
Жанр: Боевые искусства
Год выпуска: 1978
Продолжительность: 01:26:13
Перевод: Одноголосый закадровый
Субтитры: Английские, китайские (хардсаб)
Оригинальная аудиодорожка: нет
Режиссер: Пао Сю-Ли / Hsueh Li Pao
В ролях: Перл Чеунг, Шут Чунг-Тин, Тьен Пенг, Чунг Ва, Фан Линг, Вен Чианг-Лонг, Тин Хок, Гу Чанг, Си Синг...
Описание: Известная семья уничтожается, когда принцесса охотится за специальным мечом под названием”Остроумный меч". Во время того как к поискам меча присоединились приспешники, уничтожена семья приемного сына ...
Сэмпл: http://sendfile.su/1429745
Качество видео: DVDRip
Формат видео: AVI
Видео: MPEG4 Video (H264) 624x292 29.97fps 1099kbps
Аудио: Dolby AC3 48000Hz stereo 192kbps
Формат субтитров: hardsub (неотключаемые)

MediaInfo

General
Complete name : C:\Videos\Movavi Library\Witty Hand Witty Sword.avi
Format : AVI
Format/Info : Audio Video Interleave
File size : 804 MiB
Duration : 1h 26mn
Overall bit rate : 1 303 Kbps
Movie name : DVD_VIDEO.Title1
Writing application : Lavf56.40.101
Original source form/Name : DVD_VIDEO
Video
ID : 0
Format : AVC
Format/Info : Advanced Video Codec
Format profile : Main@L3.0
Format settings, CABAC : No
Format settings, ReFrames : 4 frames
Codec ID : H264
Duration : 1h 26mn
Bit rate : 1 093 Kbps
Width : 624 pixels
Height : 292 pixels
Display aspect ratio : 2.2:1
Frame rate : 29.970 fps
Color space : YUV
Chroma subsampling : 4:2:0
Bit depth : 8 bits
Scan type : Progressive
Bits/(Pixel*Frame) : 0.200
Stream size : 678 MiB (84%)
Writing library : x264 core 148
Audio
ID : 1
Format : AC-3
Format/Info : Audio Coding 3
Mode extension : CM (complete main)
Codec ID : 2000
Duration : 1h 26mn
Bit rate mode : Constant
Bit rate : 192 Kbps
Channel(s) : 2 channels
Channel positions : Front: L R
Sampling rate : 48.0 KHz
Bit depth : 16 bits
Compression mode : Lossy
Stream size : 118 MiB (15%)
Alignment : Aligned on interleaves
Interleave, duration : 32 ms (0.96 video frame)

Скриншот c названием фильма

Скриншоты

[cybertorrent.ru].t46674.torrent 
Торрент: Зарегистрирован [ 2018-07-09 16:50 ] · 7E80D6CFBF03084C9A5CF2D93BB55B3F3DF7FB0B

Скачать .torrent

Скачать

16 KB

Статус: проверено
Скачан: 1 раз
Размер: 804 MB
terms.php
[Профиль] [ЛС]
Показать сообщения:    
Ответить на тему

Текущее время: 23-Фев 16:30

Часовой пояс: UTC + 3



Вы не можете начинать темы
Вы не можете отвечать на сообщения
Вы не можете редактировать свои сообщения
Вы не можете удалять свои сообщения
Вы не можете голосовать в опросах
Вы не можете прикреплять файлы к сообщениям
Вы можете скачивать файлы