BitTorrent клиенты



Большой Город Гринов / Big City Greens / Сезон: 1 / Серии: 1-2 из 16 (Joachim Horsley) [2018, США, комедия приключения, WEB-DL 1080p] Dub

Ответить на тему
Статистика раздачи
Размер:  1,18 GB   |    Зарегистрирован:  7 месяцев 13 дней   |    Скачан:  0 раз

Полного источника не было: Никогда

 
   
 
 
Автор Сообщение

omniva ®

Пол: Не указан

Стаж: 1 год

Сообщений: 337

Создавать темы 10-Июл-2018 15:59

[Цитировать]

Большой Город Гринов / Big City Greens
Страна: США
Жанр: Мультсериал, приключения, комедия
Перевод: Профессиональный (дублированный) [Кириллица]
Продолжительность серии: ~00:22:00
Год выпуска: 2018
Режиссёр: Joachim Horsley
Описание: Сельская семья прибывшая в "Большой Город", адаптируется под новые условия жизни. Главный Крикет ищет новые и крутые развлечения вместе со своими друзьями и сестрой Тилли.
Список серий:
01: Space Chicken / Steak Night
02: Cricket Versus / Blue Tater
Качество: WEB-DL 1080p
Формат: MKV
Видео: MPEG4 Video (H264) 1920x1080 23.976fps
Аудио 1: [Русский] Dolby AC3 48000Hz stereo 192kbps
Аудио 2: [Английский] DD+ eac3 48000Hz stereo 224kbps
Субтитры: Английские, отключаемые
Работа со звуком: WORTEXSON
Запись с ТВ: Disney Play

Скриншоты

Подробные технические характеристики

General
Unique ID : 102733482259418035925323401078343776797 (0x4D49BFBCFC9B0336358B357098DCBA1D)
Complete name : D:\Disney_XD\Big.City.GreensWEB-DL1080p\Big.City.Greens.WEB-DL1080p\Big.City.Greens.S01E01.Space.Chicken-Steak.Night.1080p.WEB-DL.Rus.Eng.H264.mkv
Format : Matroska
Format version : Version 4 / Version 2
File size : 590 MiB
Duration : 22 min 1 s
Overall bit rate : 3 747 kb/s
Movie name : Big City Greens S1 EP01
Encoded date : UTC 2018-06-21 09:16:41
Writing application : mkvmerge v23.0.0 ('The Bride Said No') 64-bit
Writing library : libebml v1.3.6 + libmatroska v1.4.9
Cover : Yes
Attachments : cover_512x512.png
Video
ID : 1
Format : AVC
Format/Info : Advanced Video Codec
Format profile : High@L4
Format settings : CABAC / 4 Ref Frames
Format settings, CABAC : Yes
Format settings, ReFrames : 4 frames
Codec ID : V_MPEG4/ISO/AVC
Duration : 22 min 1 s
Bit rate : 3 326 kb/s
Width : 1 920 pixels
Height : 1 080 pixels
Display aspect ratio : 16:9
Frame rate mode : Constant
Frame rate : 23.976 (24000/1001) FPS
Color space : YUV
Chroma subsampling : 4:2:0
Bit depth : 8 bits
Scan type : Progressive
Bits/(Pixel*Frame) : 0.067
Stream size : 524 MiB (89%)
Default : Yes
Forced : No
Color range : Limited
Color primaries : BT.709
Transfer characteristics : BT.709
Matrix coefficients : BT.709
Audio #1
ID : 2
Format : AC-3
Format/Info : Audio Coding 3
Codec ID : A_AC3
Duration : 22 min 1 s
Bit rate mode : Constant
Bit rate : 192 kb/s
Channel(s) : 2 channels
Channel positions : Front: L R
Sampling rate : 48.0 kHz
Frame rate : 31.250 FPS (1536 SPF)
Bit depth : 16 bits
Compression mode : Lossy
Stream size : 30.3 MiB (5%)
Title : rus : ac-3 : 2.0 : 192 kb/s
Language : Russian
Service kind : Complete Main
Default : Yes
Forced : No
Audio #2
ID : 3
Format : E-AC-3
Format/Info : Enhanced Audio Coding 3
Codec ID : A_EAC3
Duration : 22 min 1 s
Bit rate mode : Constant
Bit rate : 224 kb/s
Channel(s) : 2 channels
Channel positions : Front: L R
Sampling rate : 48.0 kHz
Frame rate : 187.500 FPS (256 SPF)
Compression mode : Lossy
Stream size : 35.3 MiB (6%)
Title : eng : e-ac-3 : 2.0 : 224 kb/s
Language : English
Service kind : Complete Main
Default : No
Forced : No
Text #1
ID : 4
Format : UTF-8
Codec ID : S_TEXT/UTF8
Codec ID/Info : UTF-8 Plain Text
Duration : 21 min 59 s
Bit rate : 90 b/s
Count of elements : 506
Stream size : 14.6 KiB (0%)
Title : eng : sub
Language : English
Default : No
Forced : No
Text #2
ID : 5
Format : UTF-8
Codec ID : S_TEXT/UTF8
Codec ID/Info : UTF-8 Plain Text
Duration : 21 min 59 s
Bit rate : 97 b/s
Count of elements : 547
Stream size : 15.7 KiB (0%)
Title : eng : SDH
Language : English
Default : No
Forced : No
[cybertorrent.ru].t46698.torrent 
Торрент: Зарегистрирован [ 2018-07-10 16:00 ] · 352C2A326D3E67255225811F9A03AF7F0CF72E6D

Скачать .torrent

Скачать

12 KB

Статус: проверено
Скачан: 0 раз
Размер: 1,18 GB
terms.php
[Профиль] [ЛС]
Показать сообщения:    
Ответить на тему

Текущее время: 23-Фев 16:13

Часовой пояс: UTC + 3



Вы не можете начинать темы
Вы не можете отвечать на сообщения
Вы не можете редактировать свои сообщения
Вы не можете удалять свои сообщения
Вы не можете голосовать в опросах
Вы не можете прикреплять файлы к сообщениям
Вы можете скачивать файлы