Статистика раздачи
Размер:  184 MB   |    Зарегистрирован:  8 месяцев 6 дней   |    Скачан:  0 раз

Полного источника не было: Никогда

 
   
 
 

norvil ®

Пол:
Не указан
Стаж:
9 месяцев 25 дней
Сообщений:
196

Белоснежка и Алоцветик
Страна: Беларусь
Жанр: мультфильм, сказка
Продолжительность: 00:13:15
Год выпуска: 2012
Режиссёр: Елена Петкевич
Описание: По сказке братьев Гримм.
Высокомерный и самодовольный принц за неучтивое отношение к лесному гному был превращён им в медведя. Теперь юношу ждет суровое наказание – он сможет вернуть истинный облик, если его беззаветно полюбят. Принц-медведь не может вернуться во дворец, он находит приют в избушке бедной вдовы, у которой есть две дочери - Белоснежка и Алоцветик...
Качество: WEBRip
Формат: AVI
Видео: 1737 kbps, 640х480 (4:3), 25.000 fps, MPEG-4 Visual (XviD)
Аудио: 192 kbps, 44.1 kHz, 2 channels, MPEG Audio (MP3)
Субтитры: отсутствуют

Подробные технические данные

General
Complete name : Белоснежка и Алоцветик (2012).avi
Format : AVI
Format/Info : Audio Video Interleave
File size : 184 MiB
Duration : 13mn 15s
Overall bit rate : 1 939 Kbps
Writing application : MEncoder SVN-r30881(20100311-gcc4.3.3)
Writing library : VirtualDub build 35491/release
Video
ID : 0
Format : MPEG-4 Visual
Format profile : Advanced Simple@L4
Format settings, BVOP : 2
Format settings, QPel : No
Format settings, GMC : No warppoints
Format settings, Matrix : Default (H.263)
Codec ID : XVID
Codec ID/Hint : XviD
Duration : 13mn 15s
Bit rate : 1 737 Kbps
Width : 640 pixels
Height : 480 pixels
Display aspect ratio : 4:3
Frame rate : 25.000 fps
Color space : YUV
Chroma subsampling : 4:2:0
Bit depth : 8 bits
Scan type : Progressive
Compression mode : Lossy
Bits/(Pixel*Frame) : 0.226
Stream size : 165 MiB (90%)
Writing library : XviD 73
Audio
ID : 1
Format : MPEG Audio
Format version : Version 1
Format profile : Layer 3
Mode : Joint stereo
Mode extension : MS Stereo
Codec ID : 55
Codec ID/Hint : MP3
Duration : 13mn 15s
Bit rate mode : Constant
Bit rate : 192 Kbps
Channel(s) : 2 channels
Sampling rate : 44.1 KHz
Compression mode : Lossy
Stream size : 18.2 MiB (10%)
Alignment : Split accross interleaves
Interleave, duration : 40 ms (1.00 video frame)
Interleave, preload duration : 500 ms
Writing library : LAME3.98

Скриншоты

[cybertorrent.ru].t46757.torrent 
Торрент: Зарегистрирован [ 2018-04-06 09:02 ] · DEC2BC12FB7B5397A2FCEC6FB91F85B9E1FFE7EA

Скачать .torrent

Скачать

15 KB

Статус: проверено
Скачан: 0 раз
Размер: 184 MB
Профиль [ЛС]
Показать сообщения:    

Текущее время: 13-Дек 01:28

Часовой пояс: UTC ± 0



Вы не можете начинать темы
Вы не можете отвечать на сообщения
Вы не можете редактировать свои сообщения
Вы не можете удалять свои сообщения
Вы не можете голосовать в опросах
Вы не можете прикреплять файлы к сообщениям
Вы можете скачивать файлы
Torrents24.ru открытый BitTorrent Torrents24.pl открытый BitTorrent CyberTorrent.ru открытый BitTorrent BtList.ru рейтинг BitTorrent трекеров Яндекс.Метрика