Статистика раздачи
Размер:  100 MB   |    Зарегистрирован:  8 месяцев 6 дней   |    Скачан:  0 раз

Полного источника не было: Никогда

 
   
 
 

kersti ®

Пол:
Не указан
Стаж:
9 месяцев 25 дней
Сообщений:
174

Аккуратист / Akorát
Страна: Чехословакия
Жанр: мультфильм
Продолжительность: 00:06:58
Год выпуска: 1977
Перевод: не требуется
Русские субтитры: нет
Режиссёр: Любомир Бенеш / Lubomír Beneš
Описание: Сатирический сюжет про дотошного аккуратиста, помешанного на порядке.
Качество: TVRip
Формат: AVI
Видео: 1871 kbps, 720х544 (4:3), 25.000 fps, MPEG-4 Visual (XviD)
Аудио: 128 kbps, 48.0 kHz, 2 channels, MPEG Audio (MP3)
Субтитры: отсутствуют

Подробные технические данные

General
Complete name : Akorat (1977).avi
Format : AVI
Format/Info : Audio Video Interleave
File size : 100 MiB
Duration : 6mn 58s
Overall bit rate : 2 006 Kbps
Writing application : VirtualDubMod 1.5.4.1 (build 2178/release)
Writing library : VirtualDubMod build 2178/release
Video
ID : 0
Format : MPEG-4 Visual
Format profile : Simple@L3
Format settings, BVOP : No
Format settings, QPel : No
Format settings, GMC : No warppoints
Format settings, Matrix : Custom
Codec ID : XVID
Codec ID/Hint : XviD
Duration : 6mn 58s
Bit rate : 1 871 Kbps
Width : 720 pixels
Height : 544 pixels
Display aspect ratio : 4:3
Frame rate : 25.000 fps
Color space : YUV
Chroma subsampling : 4:2:0
Bit depth : 8 bits
Scan type : Progressive
Compression mode : Lossy
Bits/(Pixel*Frame) : 0.191
Stream size : 93.2 MiB (93%)
Writing library : XviD 1.0.1 (UTC 2004-06-05)
Audio
ID : 1
Format : MPEG Audio
Format version : Version 1
Format profile : Layer 3
Mode : Joint stereo
Mode extension : MS Stereo
Codec ID : 55
Codec ID/Hint : MP3
Duration : 6mn 58s
Bit rate mode : Constant
Bit rate : 128 Kbps
Channel(s) : 2 channels
Sampling rate : 48.0 KHz
Compression mode : Lossy
Stream size : 6.38 MiB (6%)
Alignment : Aligned on interleaves
Interleave, duration : 80 ms (2.00 video frames)
Interleave, preload duration : 504 ms
Writing library : LAME3.98r
Encoding settings : -m j -V 4 -q 2 -lowpass 17 -b 128

Скриншоты

[cybertorrent.ru].t46762.torrent 
Торрент: Зарегистрирован [ 2018-04-06 09:02 ] · B1E78F6F96CEDF07F8AC4052B2200706217AD946

Скачать .torrent

Скачать

16 KB

Статус: проверено
Скачан: 0 раз
Размер: 100 MB
Профиль [ЛС]
Показать сообщения:    

Текущее время: 13-Дек 01:39

Часовой пояс: UTC ± 0



Вы не можете начинать темы
Вы не можете отвечать на сообщения
Вы не можете редактировать свои сообщения
Вы не можете удалять свои сообщения
Вы не можете голосовать в опросах
Вы не можете прикреплять файлы к сообщениям
Вы можете скачивать файлы
Torrents24.ru открытый BitTorrent Torrents24.pl открытый BitTorrent CyberTorrent.ru открытый BitTorrent BtList.ru рейтинг BitTorrent трекеров Яндекс.Метрика