Статистика раздачи
Размер:  742 MB   |    Зарегистрирован:  3 месяца 12 дней   |    Скачан:  0 раз

Полного источника не было: Никогда

 
   
 
 

lopster ®

Пол:
Не указан
Стаж:
3 месяца 12 дней
Сообщений:
612

Конверт
Год выхода: 2017
Выпущено: Россия / RB Productions
Жанр: триллер, ужасы
Продолжительность: 01:14:04
Субтитры: нет-Режиссер:Владимир Марков-В ролях:Юлия Пересильд, Игорь Лизенгевич, Ольга Медынич, Сергей Барковский, Дмитрий Куличков, Алексей Кирсанов, Диана Енакаева, Варвара Бородина, Станислав Лесной, Вилен Бабичев-О фильме:Москва. Наши дни. В архитектурную компанию по ошибке приходит странное письмо. Секретарь, заметив недоразумение, просит водителя Игоря доставить конверт по нужному адресу. С этого момента в его жизни начинают происходить необъяснимые вещи: злосчастный конверт как будто преследует героя, целенаправленно ведя его к таинственному адресату.-Качество: WEB-DLRip
Формат: AVI
Видео: 688x288 (2.39:1), 25 fps, XviD build 73 ~1263 kbps avg, 0.26 bit/pixel
Аудио: 48 kHz, MPEG Layer 3, 2 ch, ~128.00 kbps avg-Скачать сэмпл-

MediaInfo

Код:Format : AVI
Format/Info : Audio Video Interleave
File size : 742 MiB
Duration : 1 h 14 min
Overall bit rate : 1 401 kb/s
Writing application : VirtualDubMod 1.5.10.3 | www.virtualdub-fr.org || (build 2550/release)
Writing library : VirtualDubMod build 2550/release
Video
ID : 0
Format : MPEG-4 Visual
Format profile : Advanced Simple@L5
Format settings : BVOP1
Format settings, BVOP : 1
Format settings, QPel : No
Format settings, GMC : No warppoints
Format settings, Matrix : Default (H.263)
Codec ID : XVID
Codec ID/Hint : XviD
Duration : 1 h 14 min
Bit rate : 1 263 kb/s
Width : 688 pixels
Height : 288 pixels
Display aspect ratio : 2.40:1
Frame rate : 25.000 FPS
Color space : YUV
Chroma subsampling : 4:2:0
Bit depth : 8 bits
Scan type : Progressive
Compression mode : Lossy
Bits/(Pixel*Frame) : 0.255
Stream size : 669 MiB (90%)
Writing library : XviD 73
Audio
ID : 1
Format : MPEG Audio
Format version : Version 1
Format profile : Layer 3
Codec ID : 55
Codec ID/Hint : MP3
Duration : 1 h 14 min
Bit rate mode : Constant
Bit rate : 128 kb/s
Channel(s) : 2 channels
Sampling rate : 48.0 kHz
Frame rate : 41.667 FPS (1152 SPF)
Compression mode : Lossy
Stream size : 67.8 MiB (9%)
Alignment : Aligned on interleaves
Interleave, duration : 40 ms (1.00 video frame)
Interleave, preload duratio : 504 ms
Writing library : LAME3.99r
Encoding settings : -m s -V 4 -q 2 -lowpass 17 -b 128

Скриншоты

[cybertorrent.ru].t468.torrent 
Торрент: Зарегистрирован [ 2018-02-15 15:48 ] · 929FE3E5559C56D7033949D601752FB9B31F91BA

Скачать .torrent

Скачать

15 KB

Статус: проверено
Скачан: 0 раз
Размер: 742 MB
Профиль [ЛС]
Показать сообщения:    

Текущее время: 28-Май 08:06

Часовой пояс: UTC ± 0



Вы не можете начинать темы
Вы не можете отвечать на сообщения
Вы не можете редактировать свои сообщения
Вы не можете удалять свои сообщения
Вы не можете голосовать в опросах
Вы не можете прикреплять файлы к сообщениям
Вы можете скачивать файлы