Статистика раздачи
Размер:  743 MB   |    Зарегистрирован:  3 месяца 10 дней   |    Скачан:  0 раз

Полного источника не было: Никогда

 
   
 
 

lopster ®

Пол:
Не указан
Стаж:
3 месяца 11 дней
Сообщений:
612

Как Витька Чеснок вез Леху Штыря в дом инвалидов
Жанр: драма, криминал
Год выпуска: 2017
Продолжительность: 01:29:41
Субтитры: нет-Режиссер: Александр Хант-В ролях: Алексей Серебряков, Евгений Ткачук, Ольга Лапшина, Алина Насибуллина, Георгий Кудренко, Роман Шаляпин, Александра Велескевич, Ксения Орлова, Наталия Вдовина, Дмитрий Архангельский-Описание: Картина расскажет о 27-летнем Витьке Чесноке, парне с детдомовским прошлым, который мечтает сбежать от «мешающих» ему жить жены и сына. Недолюбленный в детстве и очерствевший сердцем Витька Чеснок встречает своего отца-уголовника, а теперь еще и калеку. Витька решает отвезти отца в дом инвалидов, не подозревая, какие приключения и опасности ждут их по дороге.-Качество видео: WEB-DLRip
Формат видео: AVI
Видео: 688x384 (1.79:1), 24.000 fps, XviD build 73 ~1020 kbps avg, 0.16 bit/pixel
Аудио: 48 kHz, MPEG Layer 3, 2 ch, ~128.00 kbps avg-Скачать сэмпл-

MediaInfo

Код:Format : AVI
Format/Info : Audio Video Interleave
File size : 743 MiB
Duration : 1 h 29 min
Overall bit rate : 1 158 kb/s
Writing application : VirtualDubMod 1.5.10.3 | www.virtualdub-fr.org || (build 2550/release)
Writing library : VirtualDubMod build 2550/release
Video
ID : 0
Format : MPEG-4 Visual
Format profile : Advanced Simple@L5
Format settings : BVOP1
Format settings, BVOP : 1
Format settings, QPel : No
Format settings, GMC : No warppoints
Format settings, Matrix : Default (H.263)
Codec ID : XVID
Codec ID/Hint : XviD
Duration : 1 h 29 min
Bit rate : 1 021 kb/s
Width : 688 pixels
Height : 384 pixels
Display aspect ratio : 16:9
Frame rate : 24.000 FPS
Color space : YUV
Chroma subsampling : 4:2:0
Bit depth : 8 bits
Scan type : Progressive
Compression mode : Lossy
Bits/(Pixel*Frame) : 0.161
Stream size : 655 MiB (88%)
Writing library : XviD 73
Audio
ID : 1
Format : MPEG Audio
Format version : Version 1
Format profile : Layer 3
Codec ID : 55
Codec ID/Hint : MP3
Duration : 1 h 29 min
Bit rate mode : Constant
Bit rate : 128 kb/s
Channel(s) : 2 channels
Sampling rate : 48.0 kHz
Frame rate : 41.667 FPS (1152 SPF)
Compression mode : Lossy
Stream size : 82.1 MiB (11%)
Alignment : Aligned on interleaves
Interleave, duration : 42 ms (1.00 video frame)
Interleave, preload duratio : 504 ms
Writing library : LAME3.99r
Encoding settings : -m s -V 4 -q 2 -lowpass 17 -b 128

Скриншоты

[cybertorrent.ru].t469.torrent 
Торрент: Зарегистрирован [ 2018-02-15 15:48 ] · BC5D34D3920ACE779D4F6D8AEEC3E962CAAE9498

Скачать .torrent

Скачать

15 KB

Статус: проверено
Скачан: 0 раз
Размер: 743 MB
Профиль [ЛС]
Показать сообщения:    

Текущее время: 26-Май 15:31

Часовой пояс: UTC ± 0



Вы не можете начинать темы
Вы не можете отвечать на сообщения
Вы не можете редактировать свои сообщения
Вы не можете удалять свои сообщения
Вы не можете голосовать в опросах
Вы не можете прикреплять файлы к сообщениям
Вы можете скачивать файлы