Статистика раздачи
Размер:  1,38 GB   |    Зарегистрирован:  3 месяца 9 дней   |    Скачан:  0 раз

Полного источника не было: Никогда

 
   
 
 

lopster ®

Пол:
Не указан
Стаж:
3 месяца 9 дней
Сообщений:
612

Дети понедельника
Жанр: Комедия, мелодрама
Год выпуска: 1997
Продолжительность: 01:27:08
Режиссёр: Алла Сурикова
В ролях: Игорь Скляр, Ирина Розанова, Татьяна Догилева, Сергей Никоненко, Армен Джигарханян, Наталья Крачковская, Алексей Елистратов, Анатолий Калмыков, Татьяна Кравченко, Виктор Павлов, Алексей Жарков, Геннадий Назаров, Сергей Габриэлян, Наталья Акимова
Описание: Новый русский Иванушка-дурачок по имени Митя (Игорь Скляр) отправился искать свое счастье, не подозревая о том, что ходить за ним никуда и не надо было. Сбежав из-под венца и нажив массу приключений на свою глупую деревенскую голову, он вернулся из Москвы домой. А, приехав, понял, что по-прежнему любит свою простушку Лиду, лучше которой он никогда не встречал.
Доп. информация:
Автор релиза -
Источник аудио и видео для рипа - HDTV 1080i TS - моя запись с канала Первый HD - http://cybertorrent.ru/viewtopic.php?t=5495084
В дорожке AC3, 48000 Гц, 6ch, 384 kbps по факту лишь 2 канала со звуком, а оставшиеся 4 канала пустые, поэтому была перекодирована в АС3 2.0 224 kbps (спектр)



Сэмпл: https://yadi.sk/d/5gKdj1Ep3QhyXS
Рекламы нет!
Качество видео: HDTVRip
Формат видео: AVI
Видео: XviD, 704x464 (3:2), 25.000 fps, 2028 kbps, 0.248 bit/pixel
Аудио: Русский AC3, 48000 Гц, 2ch, 224 kbps

MediaInfo

Общее
Полное имя : D:\Дети.понедельника.1997.HDTVRip-ylnian.avi
Формат : AVI
Формат/Информация : Audio Video Interleave
Размер файла : 1,38 Гбайт
Продолжительность : 1 ч. 27 м.
Общий поток : 2262 Кбит/сек
Программа кодирования : VirtualDubMod 1.5.10.2 (build 2540/release)
Библиотека кодирования : VirtualDubMod build 2540/release
Видео
Идентификатор : 0
Формат : MPEG-4 Visual
Профиль формата : Advanced Simple@L5
Настройки формата : BVOP1
Параметр BVOP формата : 1
Параметр QPel формата : Нет
Параметр GMC формата : Без точки перехода
Параметр матрицы формата : Default (MPEG)
Идентификатор кодека : XVID
Идентификатор кодека/Подсказка : XviD
Продолжительность : 1 ч. 27 м.
Битрейт : 2028 Кбит/сек
Ширина : 704 пикселя
Высота : 464 пикселя
Соотношение сторон : 3:2
Частота кадров : 25,000 кадров/сек
Цветовое пространство : YUV
Субдискретизация насыщенности : 4:2:0
Битовая глубина : 8 бит
Тип развёртки : Прогрессивная
Метод сжатия : С потерями
Бит/(Пиксели*Кадры) : 0.248
Размер потока : 1,23 Гбайт (90%)
Библиотека кодирования : XviD 67
Аудио
Идентификатор : 1
Формат : AC-3
Формат/Информация : Audio Coding 3
Идентификатор кодека : 2000
Продолжительность : 1 ч. 27 м.
Вид битрейта : Постоянный
Битрейт : 224 Кбит/сек
Каналы : 2 канала
Расположение каналов : Front: L R
Частота : 48,0 КГц
Частота кадров : 31,250 кадров/сек (1536 SPF)
Битовая глубина : 16 бит
Метод сжатия : С потерями
Размер потока : 140 Мбайт (10%)
Выравнивание : Разделение по промежуткам
Продолжительность промежутка : 40 мс. (1,00 видеокадр)
Время предзагрузки промежутка : 500 мс.
ServiceKind/String : Complete Main

Сравнение

Сравнение скриншотов с HDTVRip-ом - http://screenshotcomparison.com/comparison/126479
Сравнение скриншотов с SATRip-ом - http://screenshotcomparison.com/comparison/126589
[cybertorrent.ru].t470.torrent 
Торрент: Зарегистрирован [ 2018-02-15 15:48 ] · D5D2E480472AADB7EE09CD1C871C74B13AA055BD

Скачать .torrent

Скачать

14 KB

Статус: проверено
Скачан: 0 раз
Размер: 1,38 GB
Профиль [ЛС]
Показать сообщения:    

Текущее время: 25-Май 09:02

Часовой пояс: UTC ± 0



Вы не можете начинать темы
Вы не можете отвечать на сообщения
Вы не можете редактировать свои сообщения
Вы не можете удалять свои сообщения
Вы не можете голосовать в опросах
Вы не можете прикреплять файлы к сообщениям
Вы можете скачивать файлы