Статистика раздачи
Размер:  1,37 GB   |    Зарегистрирован:  3 месяца 10 дней   |    Скачан:  0 раз
Сидов:  59  [  0 KB/s  ]   Личеров:  2  [  0 KB/s  ]  
 
   
 
 

lopster ®

Пол:
Не указан
Стаж:
3 месяца 11 дней
Сообщений:
612

Кусок Космического Льда
Жанр: драма
Год выпуска: 2017
Продолжительность: 01:22:53
Режиссёр: Ирина Ходюш
В ролях: Сергей Сарафонов, Никита Вдовенко, Ирина Ходюш, Сергей Копылов, Сисель Плеже, Андрей Таратухин, Алёна Грановская, Кирилл Таски

Описание: Вера и её семилетний сын Саша собираются эмигрировать во Францию. У Веры есть тайна: она воровка, грабит состоятельных мужчин. Однажды утром Вера обнаруживает, что дверь квартиры, где она оставила спящего Сашу, открыта. Все планы рушатся, земля уходит из под ног, но Вера готова на всё, чтобы вернуть своего ребёнка.
Кинопоиск
Sample
Качество видео: WEB-DLRip - Files-x
Формат видео: AVI
Видео: 720x400 (1.80:1), 25 fps, XviD build 73 ~2159 kbps avg, 0.300 bit/pixel
Аудио: 48 kHz, AC3 Dolby Digital, 2/0 (L,R) ch, ~192 kbps

MediaInfo

General
Complete name : D:\Kusok.kosmicheskovo.lda.2017.WEB-DLRip.Files-x.avi
Format : AVI
Format/Info : Audio Video Interleave
File size : 1.37 GiB
Duration : 1h 22mn
Overall bit rate : 2 360 Kbps
Writing application : VirtualDubMod 1.5.10.3 | www.virtualdub-fr.org || (build 2550/release)
Writing library : VirtualDubMod build 2550/release
Video
ID : 0
Format : MPEG-4 Visual
Format profile : Advanced Simple@L5
Format settings, BVOP : 1
Format settings, QPel : No
Format settings, GMC : No warppoints
Format settings, Matrix : Custom
Codec ID : XVID
Codec ID/Hint : XviD
Duration : 1h 22mn
Bit rate : 2 159 Kbps
Width : 720 pixels
Height : 400 pixels
Display aspect ratio : 16:9
Frame rate : 25.000 fps
Color space : YUV
Chroma subsampling : 4:2:0
Bit depth : 8 bits
Scan type : Progressive
Compression mode : Lossy
Bits/(Pixel*Frame) : 0.300
Stream size : 1.25 GiB (91%)
Writing library : XviD 73
Audio
ID : 1
Format : AC-3
Format/Info : Audio Coding 3
Mode extension : CM (complete main)
Format settings, Endianness : Big
Codec ID : 2000
Duration : 1h 22mn
Bit rate mode : Constant
Bit rate : 192 Kbps
Channel count : 2 channels
Channel positions : Front: L R
Sampling rate : 48.0 KHz
Bit depth : 16 bits
Compression mode : Lossy
Stream size : 114 MiB (8%)
Alignment : Split accross interleaves
Interleave, duration : 40 ms (1.00 video frame)
Interleave, preload duration : 500 ms

Скриншот c названием фильма

Скриншоты


[cybertorrent.ru].t471.torrent 
Торрент: Зарегистрирован [ 2018-02-15 15:48 ] · BC4F0FE28248D63D2F280AF30BF1A1B3D5AF1019

Скачать .torrent

Скачать

14 KB

Статус: проверено
Скачан: 0 раз
Размер: 1,37 GB
Профиль [ЛС]
Показать сообщения:    

Текущее время: 26-Май 15:40

Часовой пояс: UTC ± 0



Вы не можете начинать темы
Вы не можете отвечать на сообщения
Вы не можете редактировать свои сообщения
Вы не можете удалять свои сообщения
Вы не можете голосовать в опросах
Вы не можете прикреплять файлы к сообщениям
Вы можете скачивать файлы