Статистика раздачи
Размер:  1,46 GB   |    Зарегистрирован:  3 месяца 9 дней   |    Скачан:  0 раз

Полного источника не было: Никогда

 
   
 
 

lopster ®

Пол:
Не указан
Стаж:
3 месяца 9 дней
Сообщений:
612

Ёлки- Год выпуска: 2010
Страна: Россия
Студия: Bazelevs
Жанр: комедия-Продолжительность: 01:28:58-Режиссёры: Тимур Бекмамбетов, Александр Войтинский, Дмитрий Киселёв, Александр Андрющенко, Ярослав Чеважевский, Игнасио "Куба" Санчес
В ролях: Иван Ургант, Сергей Светлаков, Сергей Походаев, Алина Булынко, Артур Смольянинов, Екатерина Вилкова, Мария Порошина, Дато Бахтадзе, Никита Пресняков, Сергей Гармаш, Александр Головин, Александр Домогаров-мл., Сергей Друзьяк, Павел Меленчук, Ольга Тумайкина, Виктор Вержбицкий, Олег Масленников, Кристина Асмус, Мария Симакина, Константин Хабенский, Галина Данилова, Тадкик Джимми и др.-Описание: События самой новогодней комедии ЁЛКИ происходят в 11 городах: Калининграде, Казани, Перми, Уфе, Бавлах, Екатеринбурге, Красноярске, Якутске, Новосибирске, Санкт-Петербурге и Москве. Герои фильма — таксист и поп-дива, бизнесмен и актер, сноубордист и лыжник, студент и пенсионерка, пожарный и директриса, вор и милиционер, гастарбайтер и президент России. Все они оказываются в самый канун Нового года в очень непростой ситуации, выйти из которой им поможет только чудо… или Теория шести рукопожатий, согласно которой каждый человек на земле знает другого через шесть знакомых.-КиноПоиск | IMDb | Sample-Качество: BDRip-AVC (Источник: Jolki.2010.x264.BDRemux.1080p)
Формат: MKV
Видео: x264, 1040x442 (2.35:1), 23.976 fps, ~1904 kbps avg, 0.173 bit/pixel
Аудио: Русский 48.0 KHz, AC3, 3/2 (L,C,R,l,r) + LFE ch, ~448.00 kbps avg
Субтитры: русские, английские-

Релиз


Рип - whip93.

Сравнения скриншотов

Source vs. Encode vs. AngelOfTrue


MediaInfo | x264 log

x264 log

---[Information] [28.12.2017 10:15:56] raw [info]: 1040x442p 1:1 @ 24000/1001 fps (cfr)
---[Information] [28.12.2017 10:15:56] x264 [info]: using SAR=1/1
---[Information] [28.12.2017 10:15:56] x264 [info]: using cpu capabilities: MMX2 SSE2Fast SSSE3 SSE4.2 AVX
---[Information] [28.12.2017 10:15:56] x264 [info]: profile High, level 4.1
---[Information] [28.12.2017 13:55:12] x264 [info]: frame I:1188 Avg QP:17.99 size: 61403
---[Information] [28.12.2017 13:55:12] x264 [info]: frame P:35423 Avg QP:22.01 size: 18660
---[Information] [28.12.2017 13:55:12] x264 [info]: frame B:91381 Avg QP:24.58 size: 5869
---[Information] [28.12.2017 13:55:12] x264 [info]: consecutive B-frames: 5.9% 6.1% 14.0% 28.5% 15.3% 23.7% 3.6% 1.0% 0.9% 0.3% 0.2% 0.1% 0.1% 0.0% 0.1%
---[Information] [28.12.2017 13:55:12] x264 [info]: mb I I16..4: 10.3% 64.6% 25.1%
---[Information] [28.12.2017 13:55:12] x264 [info]: mb P I16..4: 1.6% 11.4% 2.0% P16..4: 40.6% 21.9% 7.4% 2.2% 0.4% skip:12.5%
---[Information] [28.12.2017 13:55:12] x264 [info]: mb B I16..4: 0.1% 1.2% 0.2% B16..8: 32.8% 13.7% 2.3% direct: 4.4% skip:45.2% L0:40.3% L1:44.1% BI:15.5%
---[Information] [28.12.2017 13:55:12] x264 [info]: 8x8 transform intra:74.5% inter:68.2%
---[Information] [28.12.2017 13:55:12] x264 [info]: coded y,uvDC,uvAC intra: 75.8% 79.3% 52.0% inter: 18.7% 18.7% 5.1%
---[Information] [28.12.2017 13:55:12] x264 [info]: i16 v,h,dc,p: 18% 11% 4% 67%
---[Information] [28.12.2017 13:55:12] x264 [info]: i8 v,h,dc,ddl,ddr,vr,hd,vl,hu: 10% 7% 6% 9% 14% 14% 13% 13% 13%
---[Information] [28.12.2017 13:55:12] x264 [info]: i4 v,h,dc,ddl,ddr,vr,hd,vl,hu: 14% 8% 7% 8% 14% 14% 12% 11% 12%
---[Information] [28.12.2017 13:55:12] x264 [info]: i8c dc,h,v,p: 33% 22% 20% 24%
---[Information] [28.12.2017 13:55:12] x264 [info]: Weighted P-Frames: Y:5.0% UV:3.0%
---[Information] [28.12.2017 13:55:12] x264 [info]: ref P L0: 55.6% 7.3% 14.6% 5.7% 4.4% 3.1% 2.6% 1.6% 1.4% 1.2% 1.1% 1.2% 0.2% 0.0%
---[Information] [28.12.2017 13:55:12] x264 [info]: ref B L0: 81.3% 8.4% 3.8% 1.9% 1.3% 1.0% 0.8% 0.5% 0.5% 0.3% 0.2%
---[Information] [28.12.2017 13:55:12] x264 [info]: ref B L1: 96.2% 3.8%
---[Information] [28.12.2017 13:55:12] x264 [info]: kb/s:1903.60
---[Information] [28.12.2017 13:55:12] encoded 127992 frames, 9.73 fps, 1903.60 kb/s
General
Unique ID : 336754305937577878031095578779401066946 (0xFD588529E7635A90368B4BD6D12019C2)
Complete name : F:\Ёлки.2010.BDRip.DD5.1.x264.-whip93.mkv
Format : Matroska
Format version : Version 4 / Version 2
File size : 1.46 GiB
Duration : 1h 28mn
Overall bit rate : 2 354 Kbps
Movie name : Ёлки (2010) - Release by whip93
Encoded date : UTC 2017-12-28 10:40:13
Writing application : mkvmerge v19.0.0 ('Brave Captain') 64-bit
Writing library : libebml v1.3.5 + libmatroska v1.4.8
DURATION : 01:25:08.024000000
NUMBER_OF_FRAMES : 1082
NUMBER_OF_BYTES : 37324
_STATISTICS_WRITING_APP : mkvmerge v19.0.0 ('Brave Captain') 64-bit
_STATISTICS_WRITING_DATE_UT : 2017-12-28 10:40:13
_STATISTICS_TAGS : BPS DURATION NUMBER_OF_FRAMES NUMBER_OF_BYTES
Video
ID : 1
Format : AVC
Format/Info : Advanced Video Codec
Format profile : High@L4.1
Format settings, CABAC : Yes
Format settings, ReFrames : 12 frames
Codec ID : V_MPEG4/ISO/AVC
Duration : 1h 28mn
Bit rate : 1 904 Kbps
Width : 1 040 pixels
Height : 442 pixels
Display aspect ratio : 2.35:1
Frame rate mode : Constant
Frame rate : 23.976 fps
Color space : YUV
Chroma subsampling : 4:2:0
Bit depth : 8 bits
Scan type : Progressive
Bits/(Pixel*Frame) : 0.173
Stream size : 1.16 GiB (79%)
Title : Encoded by whip93
Writing library : x264 core 152 r2851 ba24899
Encoding settings : cabac=1 / ref=12 / deblock=1:-3:-3 / analyse=0x3:0x133 / me=umh / subme=11 / psy=1 / psy_rd=1.00:0.08 / mixed_ref=0 / me_range=64 / chroma_me=1 / trellis=2 / 8x8dct=1 / cqm=0 / deadzone=21,11 / fast_pskip=0 / chroma_qp_offset=-1 / threads=12 / lookahead_threads=3 / sliced_threads=0 / nr=0 / decimate=1 / interlaced=0 / bluray_compat=0 / constrained_intra=0 / bframes=14 / b_pyramid=2 / b_adapt=2 / b_bias=0 / direct=1 / weightb=1 / open_gop=0 / weightp=2 / keyint=240 / keyint_min=23 / scenecut=40 / intra_refresh=0 / rc_lookahead=90 / rc=2pass / mbtree=1 / bitrate=1904 / ratetol=1.0 / qcomp=0.72 / qpmin=0 / qpmax=69 / qpstep=4 / cplxblur=20.0 / qblur=0.5 / vbv_maxrate=50000 / vbv_bufsize=62500 / nal_hrd=none / filler=0 / ip_ratio=1.40 / aq=1:0.80
Language : Russian
Default : Yes
Forced : No
Color range : Limited
Color primaries : BT.709
Transfer characteristics : BT.709
Matrix coefficients : BT.709
Audio
ID : 2
Format : AC-3
Format/Info : Audio Coding 3
Mode extension : CM (complete main)
Format settings, Endianness : Big
Codec ID : A_AC3
Duration : 1h 28mn
Bit rate mode : Constant
Bit rate : 448 Kbps
Channel(s) : 6 channels
Channel positions : Front: L C R, Side: L R, LFE
Sampling rate : 48.0 KHz
Compression mode : Lossy
Stream size : 285 MiB (19%)
Language : Russian
Default : Yes
Forced : No
Text #1
ID : 3
Format : UTF-8
Codec ID : S_TEXT/UTF8
Codec ID/Info : UTF-8 Plain Text
Language : Russian
Default : No
Forced : No
Text #2
ID : 4
Format : UTF-8
Codec ID : S_TEXT/UTF8
Codec ID/Info : UTF-8 Plain Text
Language : English
Default : No
Forced : No
Menu
00:00:00.000 : ru:Глава 1
00:04:07.455 : ru:Глава 2
00:10:16.115 : ru:Глава 3
00:16:49.090 : ru:Глава 4
00:23:20.565 : ru:Глава 5
00:28:40.510 : ru:Глава 6
00:35:37.969 : ru:Глава 7
00:41:07.422 : ru:Глава 8
00:49:10.947 : ru:Глава 9
00:54:17.003 : ru:Глава 10
00:59:15.718 : ru:Глава 11
01:04:01.504 : ru:Глава 12
01:09:59.320 : ru:Глава 13
01:14:18.078 : ru:Глава 14
01:16:51.439 : ru:Глава 15
01:22:04.544 : ru:Глава 16

Скриншоты

-
[cybertorrent.ru].t474.torrent 
Торрент: Зарегистрирован [ 2018-02-15 15:48 ] · E7E2F8C2DFC9487012329D349A659542F3005050

Скачать .torrent

Скачать

59 KB

Статус: проверено
Скачан: 0 раз
Размер: 1,46 GB
Профиль [ЛС]
Показать сообщения:    

Текущее время: 25-Май 09:01

Часовой пояс: UTC ± 0



Вы не можете начинать темы
Вы не можете отвечать на сообщения
Вы не можете редактировать свои сообщения
Вы не можете удалять свои сообщения
Вы не можете голосовать в опросах
Вы не можете прикреплять файлы к сообщениям
Вы можете скачивать файлы