Статистика раздачи
Размер:  7,44 GB   |    Зарегистрирован:  7 месяцев 1 день   |    Скачан:  0 раз

Полного источника не было: Никогда

   
 

Гость ®

Пол:
Не указан

Реализация
Год выпуска: 2019
Производство: Триикс Медиа
Жанр: детектив
Продолжительность: ~00:49:00 серия
Субтитры: нет
Режиссёр: Виктор Шкуратов
В ролях: Дмитрий Паламарчук, Эдуард Флёров, Кирилл Рубцов, Сергей Юшкевич, Михаил Тарабукин, Максим Дахненко, Алексей Красноцветов, Ирина Ларионова, Игорь Ключников, Сергей Жарков, Елена Вожакина, Андрей Терентьев, Роман Агеев, Кирилл Полухин, Сергей Уманов, Вячеслав Аркунов, Алексей Штукин, Наталия Вязовская, Степан Пивкин, Виталий Салий, Юлия Кудояр, Игорь Грабузов, Антон Сычёв, Кирилл Кузнецов, Антон Чернов, Артём Цыпин, Владимир Петров, Станислав Ткаченко, Александр Клемантович, Олег Метелев, Юрий Ковалёв, Ирина Горкунова, Вячеслав Гумеров, Татьяна Ермилова, Дмитрий Могучев, Александр Петров, Михаил Сидаш, Геннадий Меньшиков, Александр Кратиров
Описание: Опытного розыскника из Великого Новгорода с необычной фамилией Красавец (ударение на последний слог), после конфликта с криминальным бизнесменом, переводят на должность простого участкового в Центральный район Петербурга. Всё, что хочет теперь Красавец — это тихо и мирно дослужить до пенсии. Но каждый раз, неожиданно для себя, оказывается в эпицентре преступных событий. То он втянут в разборки между криминальным авторитетом и коллегами из УМВД, то ищет похищенного начальника главка, то ловит неуловимого киллера.

Реклама: Нет.
Кинопоиск
Все раздачи сериала
Sample
Качество: WEBRip - Files-x
Формат: AVI
Видео кодек: XviD
Аудио кодек: AC3
Видео: 720x400 (1.80:1), 25 fps, XviD ~1600 kbps avg, 0.222 bit/pixel
Аудио: 48.0 kHz, AC3 Dolby Digital, 2/0 (L,R) ch, ~ 192 kbps

Внимание! Раздача ведётся путём добавления новых серий

Раздача ведётся путём добавления новых серий, при каждом добавлении создаётся новый торрент. Чтобы начать докачку новой серии, пользователям необходимо сделать следующее:
- Остановить скачивание.
- Удалить старый торрент у себя из клиента (старые серии удалять не надо).
- Скачать новый торрент и запустить его у себя в клиенте вместо старого, при этом указать клиенту путь в старую папку куда и должно происходить скачивание новых серий.
Ваш клиент при этом должен произвести хеширование (проверку) старой папки (если не производит сам - помогите ему сделать это), и будет докачивать только те серии которых у вас ещё нет. Старые серии при этом не удаляются, а продолжают раздаваться!
Если вы уже удалили старые серии, то предотвратить повторную закачку старых серий можно, отжав галочку в соответствующих местах при запуске нового торрента. По возможности, желательно не удалять старые серии как можно дольше, чтобы релизер не столько продолжал раздавать старые серии, а смог сконцентрироваться на новых.

MI

General
Complete name : D:\Реализация .(2019\01. Реализация.2018.WEB-DLRip. Files-x.avi
Format : AVI
Format/Info : Audio Video Interleave
File size : 640 MiB
Duration : 49 min 42 s
Overall bit rate : 1 802 kb/s
Writing application : VirtualDubMod 1.5.10.3 | www.virtualdub-fr.org || (build 2550/release)
Writing library : VirtualDubMod build 2550/release
Video
ID : 0
Format : MPEG-4 Visual
Format profile : Advanced Simple@L5
Format settings : BVOP1 / Custom Matrix
Format settings, BVOP : 1
Format settings, QPel : No
Format settings, GMC : No warppoints
Format settings, Matrix : Custom
Codec ID : XVID
Codec ID/Hint : XviD
Duration : 49 min 42 s
Bit rate : 1 600 kb/s
Width : 720 pixels
Height : 400 pixels
Display aspect ratio : 16:9
Frame rate : 25.000 FPS
Color space : YUV
Chroma subsampling : 4:2:0
Bit depth : 8 bits
Scan type : Progressive
Compression mode : Lossy
Bits/(Pixel*Frame) : 0.222
Stream size : 569 MiB (89%)
Writing library : XviD 73
Audio
ID : 1
Format : AC-3
Format/Info : Audio Coding 3
Codec ID : 2000
Duration : 49 min 42 s
Bit rate mode : Constant
Bit rate : 192 kb/s
Channel(s) : 2 channels
Channel positions : Front: L R
Sampling rate : 48.0 kHz
Frame rate : 31.250 FPS (1536 SPF)
Bit depth : 16 bits
Compression mode : Lossy
Stream size : 68.3 MiB (11%)
Alignment : Split accross interleaves
Interleave, duration : 40 ms (1.00 video frame)
Interleave, preload duratio : 500 ms
Service kind : Complete Main

Скриншоты


[cybertorrent.ru].t476.torrent 
Торрент: Зарегистрирован [ 2019-03-18 13:08 ] · EDB715AF7BF4EAABC903EF60A25A367FBFC93B44

Скачать .torrent

Скачать

39 KB

Статус: проверено
Скачан: 0 раз
Размер: 7,44 GB
terms.php
Показать сообщения:    

Текущее время: 20-Окт 00:32

Часовой пояс: UTC ± 0



Вы не можете начинать темы
Вы не можете отвечать на сообщения
Вы не можете редактировать свои сообщения
Вы не можете удалять свои сообщения
Вы не можете голосовать в опросах
Вы не можете прикреплять файлы к сообщениям
Вы можете скачивать файлы