BitTorrent клиенты



В одном районе (Шакен Айманов) [1960, драма, DVB]

Ответить на тему
Статистика раздачи
Размер:  1,5 GB   |    Зарегистрирован:  7 месяцев 2 дня   |    Скачан:  0 раз

Полного источника не было: Никогда

 
   
 
 
Автор Сообщение

Awrora ®

Пол: Не указан

Стаж: 1 год

Сообщений: 325

Создавать темы 19-Июл-2018 16:03

[Цитировать]

В одном районе Жанр: драма
Студия: Казахфильм
Продолжительность: 01:28:36
Год выпуска: 1960-Режиссёр: Шакен Айманов
В ролях: Лола Абдукаримова, Асанали Ашимов, Евгений Диордиев, Амина Умурзакова, Серке Кожамкулов, Евгений Попов, Рахметулла Сальменов, Сейфолла Тельгараев, Касым Жакибаев, Рахметбай Тлеубаев.-Описание: Долгие годы руководил Сабыр Баянов Алгабасским районом. Много сил, энергии и горячей души вложил он в создание крупного животноводческого района, заслуженно завоевал авторитет и уважение. Но в последнее время потерял Сабыр Баянов чувство нового, пытался жить и руководить по-старинке. Однако, присматриваясь к жизни, встречаясь с интересными людьми — простыми тружениками, он понимает, что был неправ.-
Семпл: https://www.sendspace.com/file/5958x2-Качество: DVB [Ел Арна] (эфир 17.07.2018)
Формат: TS
Видео: AVC, 720x576 (16:9) @ 1047x576, 25 fps, ~2102 kbps, 0.203 bit/pixel
Аудио: [RUS] MP2, 48 kHz, 2 ch, 192 kbps

Mediainfo

General
ID : 1 (0x1)
Complete name : H:\Раздачи\В одном районе (1960) [DVB].ts
Format : MPEG-TS
File size : 1.50 GiB
Duration : 1 h 28 min
Overall bit rate mode : Variable
Overall bit rate : 2 415 kb/s
Video
ID : 67 (0x43)
Menu ID : 1 (0x1)
Format : AVC
Format/Info : Advanced Video Codec
Format profile : High@L3
Format settings : CABAC / 3 Ref Frames
Format settings, CABAC : Yes
Format settings, ReFrames : 3 frames
Codec ID : 27
Duration : 1 h 28 min
Bit rate : 2 102 kb/s
Width : 720 pixels
Height : 576 pixels
Display aspect ratio : 16:9
Frame rate : 25.000 FPS
Standard : Component
Color space : YUV
Chroma subsampling : 4:2:0
Bit depth : 8 bits
Scan type : Interlaced
Scan type, store method : Separated fields
Scan order : Top Field First
Bits/(Pixel*Frame) : 0.203
Stream size : 1.30 GiB (87%)
Color range : Limited
Color primaries : BT.601 PAL
Transfer characteristics : BT.470 System B/G
Matrix coefficients : BT.470 System B/G
Audio
ID : 68 (0x44)
Menu ID : 1 (0x1)
Format : MPEG Audio
Format version : Version 1
Format profile : Layer 2
Codec ID : 3
Duration : 1 h 28 min
Bit rate mode : Constant
Bit rate : 192 kb/s
Channel(s) : 2 channels
Sampling rate : 48.0 kHz
Frame rate : 41.667 FPS (1152 SPF)
Compression mode : Lossy
Delay relative to video : -80 ms
Stream size : 122 MiB (8%)
Language : English

Скриншоты

[cybertorrent.ru].t47679.torrent 
Торрент: Зарегистрирован [ 2018-07-19 16:05 ] · 127B60BDCBC9C7C7F1374867E5200A2C39EF6966

Скачать .torrent

Скачать

15 KB

Статус: проверено
Скачан: 0 раз
Размер: 1,5 GB
terms.php
[Профиль] [ЛС]
Показать сообщения:    
Ответить на тему

Текущее время: 22-Фев 03:22

Часовой пояс: UTC + 3



Вы не можете начинать темы
Вы не можете отвечать на сообщения
Вы не можете редактировать свои сообщения
Вы не можете удалять свои сообщения
Вы не можете голосовать в опросах
Вы не можете прикреплять файлы к сообщениям
Вы можете скачивать файлы