BitTorrent клиенты



Фото на память (Антон Зенкович) [2018, Россия, триллер, ужасы, WEB-DL 1080p] Original Rus

Ответить на тему
Статистика раздачи
Размер:  2,55 GB   |    Зарегистрирован:  7 месяцев 2 дня   |    Скачан:  0 раз

Полного источника не было: Никогда

 
   
 
 
Автор Сообщение

Армен ®

Пол: Не указан

Стаж: 1 год

Сообщений: 321

Создавать темы 19-Июл-2018 16:03

[Цитировать]

Фото на память
Страна: Россия
Студия: Big Cinema House
Жанр: триллер, ужасы
Год выпуска: 2018
Продолжительность: 01:13:41
Перевод: Не требуется
Субтитры: нет
Оригинальная аудиодорожка: русский
Режиссёр: Антон Зенкович
В ролях: Ирина Темичева, Степан Юрпалов, Анастасия Уколова, Санжар Мади, Гарик Петросян, Егор Харламов, Софья Зайка

Описание: Неожиданная авария заставляет компанию молодых людей свернуть в старый дом, где, к своему удивлению, среди множества жутких фотографий, они находят снимок их разбитого автомобиля. К тому же в одной из комнат обнаруживается старинный фотоаппарат, на который возможно и сделаны страшные снимки. Молодые люди оказываются втянуты в несущую смерть, кровавую карусель…
Убивает ли фотоаппарат? Случайны ли происходящие с ними события? Всё это предстоит выяснить оказавшимся в безвыходной ситуации героям.

Кинопоиск
Sample
Тип релиза: WEB-DL 1080p
Контейнер: MKV
Видео: MPEG4 AVC Video, H264, 1920x804, 24 fps, 4571 kbps
Аудио: Russian (AC3, 6 ch, 384 kbps, 16 bits, 48.0 KHz) - оригинал

MediaInfo

General
Unique ID : 185800980527764403671099086854780677283 (0x8BC7F79B0A9553A0AEC03F747618ECA3)
Complete name : D:\Фото на память 2018 WEB-DL 1080p.mkv
Format : Matroska
Format version : Version 4 / Version 2
File size : 2.55 GiB
Duration : 1 h 13 min
Overall bit rate : 4 957 kb/s
Encoded date : UTC 2018-07-18 13:54:39
Writing application : mkvmerge v9.5.0 ('Quiet Fire') 64bit
Writing library : libebml v1.3.4 + libmatroska v1.4.5
Video
ID : 1
Format : AVC
Format/Info : Advanced Video Codec
Format profile : High@L4
Format settings : CABAC / 5 Ref Frames
Format settings, CABAC : Yes
Format settings, ReFrames : 5 frames
Codec ID : V_MPEG4/ISO/AVC
Duration : 1 h 13 min
Bit rate : 4 571 kb/s
Width : 1 920 pixels
Height : 804 pixels
Display aspect ratio : 2.40:1
Frame rate mode : Constant
Frame rate : 24.000 FPS
Color space : YUV
Chroma subsampling : 4:2:0
Bit depth : 8 bits
Scan type : Progressive
Bits/(Pixel*Frame) : 0.123
Stream size : 2.35 GiB (92%)
Language : English
Default : Yes
Forced : No
Color range : Limited
Color primaries : BT.709
Transfer characteristics : BT.709
Matrix coefficients : BT.709
Audio
ID : 2
Format : AC-3
Format/Info : Audio Coding 3
Codec ID : A_AC3
Duration : 1 h 13 min
Bit rate mode : Constant
Bit rate : 384 kb/s
Channel(s) : 6 channels
Channel positions : Front: L C R, Side: L R, LFE
Sampling rate : 48.0 kHz
Frame rate : 31.250 FPS (1536 SPF)
Bit depth : 16 bits
Compression mode : Lossy
Stream size : 202 MiB (8%)
Language : Russian
Service kind : Complete Main
Default : Yes
Forced : No
Menu
00:00:00.000 : en:Глава 1
00:06:41.666 : en:Глава 2
00:12:22.499 : en:Глава 3
00:17:54.832 : en:Глава 4
00:23:53.248 : en:Глава 5
00:30:54.873 : en:Глава 6
00:35:29.748 : en:Глава 7
00:40:30.123 : en:Глава 8
00:45:46.581 : en:Глава 9
00:50:56.247 : en:Глава 10
00:56:29.913 : en:Глава 11
01:01:13.163 : en:Глава 12

Скриншоты


[cybertorrent.ru].t47710.torrent 
Торрент: Зарегистрирован [ 2018-07-19 16:05 ] · 99191C2D1A85F8F417348CF69B4FF74E3362B5EE

Скачать .torrent

Скачать

13 KB

Статус: проверено
Скачан: 0 раз
Размер: 2,55 GB
terms.php
[Профиль] [ЛС]
Показать сообщения:    
Ответить на тему

Текущее время: 22-Фев 03:02

Часовой пояс: UTC + 3



Вы не можете начинать темы
Вы не можете отвечать на сообщения
Вы не можете редактировать свои сообщения
Вы не можете удалять свои сообщения
Вы не можете голосовать в опросах
Вы не можете прикреплять файлы к сообщениям
Вы можете скачивать файлы