Статистика раздачи
Размер:  696 MB   |    Зарегистрирован:  3 месяца 12 дней   |    Скачан:  0 раз

Полного источника не было: Никогда

 
   
 
 

lopster ®

Пол:
Не указан
Стаж:
3 месяца 12 дней
Сообщений:
612

Цветы для Снежной королевы
Девушкам и "девушкам навек" просмотр строго рекомендуется!
Год выпуска: 2006
Жанр: Мелодрама
Продолжительность: 01:44:19
Режиссер: Лев Карпов
В ролях: Олеся Судзиловская, Игорь Верник, Александр Семчев, Александр Феклистов, Алексей Булдаков, Александр Данильченко, Ада Роговцева, Николай Чидяйкин, Владимир Терещук, Ксения Радченко и др.
Описание: Как отнесётся любая женщина, если мужчина, который, пусть пока и неосознанно, но волнует её, поможет в безвыходной ситуации? А если он, накануне Нового года, преподнесёт ей немыслимых размеров букет цветов? А если он это сделает в свете мощного прожектора, на фоне ночного неба и падающих пушистых снежинок да ещё на уровне ...надцатого этажа? Сердце не только дрогнет, душа не только завибрирует.... Даже самая снежная из всех снежных королев - оттает! Привычный мир меняется у всех на глазах. Так бывает во снах. Или перед самым волшебным праздником - Новым годом. И вокруг, наконец-то, кружат нарядные снежинки, которых все так давно ждали, и земля покрывается искрящимся волшебным покрывалом. Всё обещает героям новую жизнь - радостную и яркую. А нам - надежду на то, что чудо есть. Просто его нужно вовремя разглядеть и принять.
Все раздачи фильма: Цветы для Снежной королевы
Качество: DVDRip
Формат: AVI
Видео: 640x480 (1.33:1), 25 fps, XviD Final 1.0.3 (build 37) ~794 kbps avg, 0.10 bit/pixel
Аудио: 48 kHz, MPEG Layer 3, 2 ch, ~128.00 kbps avg

MI

Код:Общее
Полное имя : C:\otkat\Видео\Цветы для снежной королевы\Cvety.dlja.snezhnoj.korolevy.(RUS).XviD-SEED-team.avi
Формат : AVI
Формат/Информация : Audio Video Interleave
Размер файла : 696 Мбайт
Продолжительность : 1 ч. 44 м.
Общий поток : 933 Кбит/сек
Программа кодирования : VirtualDubMod 1.5.10.1 (build 2439/release)
Библиотека кодирования : VirtualDubMod build 2439/release
Видео
Идентификатор : 0
Формат : MPEG-4 Visual
Профиль формата : Advanced Simple@L5
Параметр BVOP формата : 2
Параметр QPel формата : Нет
Параметр GMC формата : Без точки перехода
Параметр матрицы формата : Default (H.263)
Режим смешивания : Сжатый битовый поток
Идентификатор кодека : XVID
Идентификатор кодека/Подсказка : XviD
Продолжительность : 1 ч. 44 м.
Битрейт : 795 Кбит/сек
Ширина : 640 пикселей
Высота : 480 пикселей
Соотношение сторон : 4:3
Частота кадров : 25,000 кадров/сек
Цветовое пространство : YUV
Субдискретизация насыщенности : 4:2:0
Битовая глубина : 8 бит
Тип развёртки : Прогрессивная
Метод сжатия : С потерями
Бит/(Пиксели*Кадры) : 0.104
Размер потока : 593 Мбайт (85%)
Библиотека кодирования : XviD 1.0.3 (UTC 2004-12-20)
Аудио
Идентификатор : 1
Формат : MPEG Audio
Версия формата : Version 1
Профиль формата : Layer 3
Режим : Dual mono
Идентификатор кодека : 55
Идентификатор кодека/Подсказка : MP3
Продолжительность : 1 ч. 44 м.
Вид битрейта : Постоянный
Битрейт : 128 Кбит/сек
Каналы : 2 канала
Частота : 48,0 КГц
Метод сжатия : С потерями
Размер потока : 95,5 Мбайт (14%)
Выравнивание : Соединение по промежуткам
Продолжительность промежутка : 40 мс. (1,00 видеокадр)
Время предзагрузки промежутка : 504 мс.

Скриншоты


[cybertorrent.ru].t48.torrent 
Торрент: Зарегистрирован [ 2018-02-15 13:57 ] · 023426C7511003F8F886E27675FD9A3DDAB04675

Скачать .torrent

Скачать

14 KB

Статус: проверено
Скачан: 0 раз
Размер: 696 MB
Профиль [ЛС]
Показать сообщения:    

Текущее время: 28-Май 08:10

Часовой пояс: UTC ± 0



Вы не можете начинать темы
Вы не можете отвечать на сообщения
Вы не можете редактировать свои сообщения
Вы не можете удалять свои сообщения
Вы не можете голосовать в опросах
Вы не можете прикреплять файлы к сообщениям
Вы можете скачивать файлы