BitTorrent клиенты



(Post-grunge) [CD] Silverchair - Neon Ballroom - 1999, FLAC (tracks+.cue), lossless

Ответить на тему
Статистика раздачи
Размер:  351 MB   |    Зарегистрирован:  6 месяцев 30 дней   |    Скачан:  0 раз

Полного источника не было: Никогда

 
   
 
 
Автор Сообщение

mors ®

Пол: Не указан

Стаж: 11 месяцев 22 дня

Сообщений: 547

Создавать темы 22-Июл-2018 15:48

[Цитировать]

Silverchair / Neon Ballroom
Жанр: Post-grunge
Носитель: CD
Страна-производитель диска (релиза): ?
Год издания: 1999
Издатель (лейбл): ?
Номер по каталогу: ?
Страна исполнителя (группы): Australia
Аудиокодек: FLAC (*.flac)
Тип рипа: tracks+.cue
Битрейт аудио: lossless
Продолжительность: 00:49:36
Источник (релизер): Demonoid (Kitlope)
Наличие сканов в содержимом раздачи: нет
Треклист:
01 Emotion Sickness 6:01
02 Anthem for the Year 2000 4:08
03 Ana's Song (Open Fire) 3:42
04 Spawn Again 3:31
05 Miss You Love 4:01
06 Dearest Helpless 3:35
07 Do You Feel the Same 4:18
08 Black Tangled Heart 4:34
09 Point of View 3:35
10 Satin Sheets 2:24
11 Paint Pastel Princess 4:33
12 Steam Will Rise 5:18
13 CD-Extra data track 9:56

Лог создания рипа

Exact Audio Copy V0.99 prebeta 4 from 23. January 2008
EAC extraction logfile from 7. July 2008, 20:34
silverchair / Neon Ballroom
Used drive : HL-DT-STRW/DVD GCC-4480B Adapter: 2 ID: 1
Read mode : Secure
Utilize accurate stream : Yes
Defeat audio cache : No
Make use of C2 pointers : Yes
Read offset correction : 6
Overread into Lead-In and Lead-Out : No
Fill up missing offset samples with silence : Yes
Delete leading and trailing silent blocks : No
Null samples used in CRC calculations : No
Used interface : Native Win32 interface for Win NT & 2000
Gap handling : Not detected, thus appended to previous track
Used output format : User Defined Encoder
Selected bitrate : 768 kBit/s
Quality : High
Add ID3 tag : No
Command line compressor : C:\Program Files\Exact Audio Copy\FLAC\FLAC.EXE
Additional command line options : -8 -V -T "ARTIST=%a" -T "TITLE=%t" -T "ALBUM=%g" -T "DATE=%y" -T "TRACKNUMBER=%n" -T "GENRE=%m" -T "COMMENT=%e" %s -o %d
Use compression offset : 0
TOC of the extracted CD
Track | Start | Length | Start sector | End sector
---------------------------------------------------------
1 | 0:00.00 | 6:00.15 | 0 | 27014
2 | 6:00.15 | 4:22.35 | 27015 | 46699
3 | 10:22.50 | 3:42.22 | 46700 | 63371
4 | 14:04.72 | 3:31.10 | 63372 | 79206
5 | 17:36.07 | 4:00.63 | 79207 | 97269
6 | 21:36.70 | 3:34.45 | 97270 | 113364
7 | 25:11.40 | 4:17.72 | 113365 | 132711
8 | 29:29.37 | 4:33.45 | 132712 | 153231
9 | 34:03.07 | 3:35.15 | 153232 | 169371
10 | 37:38.22 | 2:24.15 | 169372 | 180186
11 | 40:02.37 | 4:33.48 | 180187 | 200709
12 | 44:36.10 | 5:17.67 | 200710 | 224551
13 | 52:26.02 | 9:56.46 | 235952 | 280697
Track 1
Filename C:\music\silverchair\Neon Ballroom\01 Emotion Sickness.wav
Peak level 99.9 %
Track quality 99.4 %
Test CRC 1B416EEF
Copy CRC 1B416EEF
Accurately ripped (confidence 9) [83F49860]
Copy OK
Track 2
Filename C:\music\silverchair\Neon Ballroom\02 Anthem For The Year 2000.wav
Peak level 99.9 %
Track quality 100.0 %
Test CRC 56853453
Copy CRC 56853453
Accurately ripped (confidence 9) [39336991]
Copy OK
Track 3
Filename C:\music\silverchair\Neon Ballroom\03 Ana's Song (Open Fire).wav
Peak level 99.9 %
Track quality 100.0 %
Test CRC 88796D81
Copy CRC 88796D81
Accurately ripped (confidence 9) [6F13083A]
Copy OK
Track 4
Filename C:\music\silverchair\Neon Ballroom\04 Spawn Again.wav
Peak level 99.9 %
Track quality 100.0 %
Test CRC 2CD9B5E8
Copy CRC 2CD9B5E8
Accurately ripped (confidence 9) [7C6CCAB2]
Copy OK
Track 5
Filename C:\music\silverchair\Neon Ballroom\05 Miss You Love.wav
Peak level 99.2 %
Track quality 100.0 %
Test CRC F51FA570
Copy CRC F51FA570
Accurately ripped (confidence 8) [5DFE821F]
Copy OK
Track 6
Filename C:\music\silverchair\Neon Ballroom\06 Dearest Helpless.wav
Peak level 99.9 %
Track quality 100.0 %
Test CRC F891EAEC
Copy CRC F891EAEC
Accurately ripped (confidence 8) [34DCEC8E]
Copy OK
Track 7
Filename C:\music\silverchair\Neon Ballroom\07 Do You Feel The Same.wav
Peak level 99.9 %
Track quality 100.0 %
Test CRC 079B0E23
Copy CRC 079B0E23
Accurately ripped (confidence 8) [984AEB68]
Copy OK
Track 8
Filename C:\music\silverchair\Neon Ballroom\08 Black Tangled Heart.wav
Peak level 99.9 %
Track quality 100.0 %
Test CRC 0617AFF7
Copy CRC 0617AFF7
Accurately ripped (confidence 9) [4A12AC6B]
Copy OK
Track 9
Filename C:\music\silverchair\Neon Ballroom\09 Point Of View.wav
Peak level 99.9 %
Track quality 100.0 %
Test CRC FB31C39A
Copy CRC FB31C39A
Accurately ripped (confidence 8) [AC8DA3CB]
Copy OK
Track 10
Filename C:\music\silverchair\Neon Ballroom\10 Satin Sheets.wav
Peak level 99.9 %
Track quality 100.0 %
Test CRC D9017E70
Copy CRC D9017E70
Accurately ripped (confidence 9) [B01F7657]
Copy OK
Track 11
Filename C:\music\silverchair\Neon Ballroom\11 Paint Pastel Princess.wav
Peak level 99.9 %
Track quality 100.0 %
Test CRC 94D3E5DE
Copy CRC 94D3E5DE
Accurately ripped (confidence 8) [B3E39B1E]
Copy OK
Track 12
Filename C:\music\silverchair\Neon Ballroom\12 Steam Will Rise.wav
Peak level 99.9 %
Track quality 100.0 %
Test CRC 1FE65F47
Copy CRC 1FE65F47
Accurately ripped (confidence 9) [F12D63F9]
Copy OK
All tracks accurately ripped
No errors occurred
End of status report

Содержание индексной карты (.CUE)

REM GENRE Rock
REM DATE 1999
REM DISCID AD0E9E0D
REM COMMENT "ExactAudioCopy v0.99pb4"
PERFORMER "silverchair"
TITLE "Neon Ballroom"
FILE "silverchair\Neon Ballroom\01 Emotion Sickness.wav" WAVE
TRACK 01 AUDIO
TITLE "Emotion Sickness"
PERFORMER "silverchair"
INDEX 01 00:00:00
FILE "silverchair\Neon Ballroom\02 Anthem For The Year 2000.wav" WAVE
TRACK 02 AUDIO
TITLE "Anthem For The Year 2000"
PERFORMER "silverchair"
INDEX 01 00:00:00
FILE "silverchair\Neon Ballroom\03 Ana's Song (Open Fire).wav" WAVE
TRACK 03 AUDIO
TITLE "Ana's Song (Open Fire)"
PERFORMER "silverchair"
INDEX 01 00:00:00
FILE "silverchair\Neon Ballroom\04 Spawn Again.wav" WAVE
TRACK 04 AUDIO
TITLE "Spawn Again"
PERFORMER "silverchair"
INDEX 01 00:00:00
TRACK 05 AUDIO
TITLE "Miss You Love"
PERFORMER "silverchair"
INDEX 00 03:27:55
FILE "silverchair\Neon Ballroom\05 Miss You Love.wav" WAVE
INDEX 01 00:00:00
FILE "silverchair\Neon Ballroom\06 Dearest Helpless.wav" WAVE
TRACK 06 AUDIO
TITLE "Dearest Helpless"
PERFORMER "silverchair"
INDEX 01 00:00:00
FILE "silverchair\Neon Ballroom\07 Do You Feel The Same.wav" WAVE
TRACK 07 AUDIO
TITLE "Do You Feel The Same"
PERFORMER "silverchair"
INDEX 01 00:00:00
TRACK 08 AUDIO
TITLE "Black Tangled Heart"
PERFORMER "silverchair"
INDEX 00 04:16:05
FILE "silverchair\Neon Ballroom\08 Black Tangled Heart.wav" WAVE
INDEX 01 00:00:00
FILE "silverchair\Neon Ballroom\09 Point Of View.wav" WAVE
TRACK 09 AUDIO
TITLE "Point Of View"
PERFORMER "silverchair"
INDEX 01 00:00:00
FILE "silverchair\Neon Ballroom\10 Satin Sheets.wav" WAVE
TRACK 10 AUDIO
TITLE "Satin Sheets"
PERFORMER "silverchair"
INDEX 01 00:00:00
FILE "silverchair\Neon Ballroom\11 Paint Pastel Princess.wav" WAVE
TRACK 11 AUDIO
TITLE "Paint Pastel Princess"
PERFORMER "silverchair"
INDEX 01 00:00:00
FILE "silverchair\Neon Ballroom\12 Steam Will Rise.wav" WAVE
TRACK 12 AUDIO
TITLE "Steam Will Rise"
PERFORMER "silverchair"
INDEX 01 00:00:00
[cybertorrent.ru].t48085.torrent 
Торрент: Зарегистрирован [ 2018-07-22 15:50 ] · 971E2DE41A28BE68ACB1A395FDCF818F13125DC0

Скачать .torrent

Скачать

15 KB

Статус: проверено
Скачан: 0 раз
Размер: 351 MB
terms.php
[Профиль] [ЛС]
Показать сообщения:    
Ответить на тему

Текущее время: 22-Фев 03:45

Часовой пояс: UTC + 3



Вы не можете начинать темы
Вы не можете отвечать на сообщения
Вы не можете редактировать свои сообщения
Вы не можете удалять свои сообщения
Вы не можете голосовать в опросах
Вы не можете прикреплять файлы к сообщениям
Вы можете скачивать файлы