Статистика раздачи
Размер:  8,32 GB   |    Зарегистрирован:  5 месяцев 14 дней   |    Скачан:  0 раз

Полного источника не было: Никогда

 
     
 
 

ondreyko ®

Пол:
Не указан
Стаж:
9 месяцев 23 дня
Сообщений:
65

Парень из электрички / Densha Otoko / Train Man- Страна: Япония
Год выпуска: 2005
Жанр: драма, комедия, мелодрама
Продолжительность: 12 серий по ~50 мин
Режиссер: Хидэки Такэути
В ролях: Ацуси Ито, Мисаки Ито, Кодзюн Ито, Мокомити Хаями, Михо Сираиси, Риса Судо, Эрико Сато, Кумико Акиёси, Хитори Гэкидан, Маки Хорикита
Перевод: Одноголосная озвучка
автор перевода: Kagura Ent-Описание: Всю свою сознательную жизнь Ямада Цуёси был неудачником и лузером. Окончив учебу и став взрослым, он не изменился: все его свободное время по-прежнему уходит на сбор моделей мех из сериала «Гандам», просмотр новых эпизодов аниме и зависания с друзьями-отаку в мейд-кафе. Но однажды случилось так, что бедняга Ямада после очередного шабаша с дружками ехал домой в электричке вместе с очень красивой девушкой, к которой, как назло, начал приставать пьяный извращенец. Собрав всю свою волю в кулак Ямада отстоял красавицу, но столкнулся с другой напастью — девушка решила отблагодарить «рыцаря» и дала ему свой номер телефона. С этого и начинается крестовый поход бедного отаку в неизведанные дебри любви, преодолеть которые ему помогут такие же неудачники с интернет-форума…

Отличия: 1; От оригинала отличается декодированием видео для возможности просмотра на телевизоре.
2; Замена оригинального звука на русскую одноголосную закадровую озвучку.
Ссылка на оригинал: https://cybertorrent.ru/viewtopic.php?t=4534937
Неотключаемые субтитры: Без хардсаба
Русские субтитры: Есть
Оригинальная аудиодорожка: Нет
Качество видео: DVDRip
Разрешение: 576p
Формат: MKV
Видео: H.264 (AVC High@L3.1), 8 bits, 1024x576, 29.970 fps, ~2000 kbps
Аудио: Rus, MP3, 2 ch, 48 kHz, 16 bits, 128 kbps
; Озвучка 2:: Русский - Одноголосный, любительский, Kagura Ent.; русские субтитры, Сергей Светличный-

Подробные тех. данные

General
Unique ID : 5757435900520538359496080433246127093 (0x454D7818A2F5F15E8D98407952443F5)
Complete name : D:\TV SERIES\Densha Otoko\Densha Otoko\Densha Otoko - 01 [DVDRip 1024x576 x264 AC3].mkv
Format : Matroska
Format version : Version 4 / Version 2
File size : 864 MiB
Duration : 57 min 49 s
Overall bit rate : 2 090 kb/s
Writing application : Lavf57.71.100
Writing library : Lavf57.71.100
ErrorDetectionType : Per level 1
Video
ID : 1
Format : AVC
Format/Info : Advanced Video Codec
Format profile : High@L3.1
Format settings : CABAC / 4 Ref Frames
Format settings, CABAC : Yes
Format settings, ReFrames : 4 frames
Codec ID : V_MPEG4/ISO/AVC
Duration : 57 min 49 s
Bit rate : 1 920 kb/s
Width : 1 024 pixels
Height : 576 pixels
Display aspect ratio : 16:9
Frame rate mode : Constant
Frame rate : 29.970 (30000/1001) FPS
Color space : YUV
Chroma subsampling : 4:2:0
Bit depth : 8 bits
Scan type : Progressive
Bits/(Pixel*Frame) : 0.109
Stream size : 794 MiB (92%)
Writing library : x264 core 152 r2854 e9a5903
Encoding settings : cabac=1 / ref=3 / deblock=1:0:0 / analyse=0x3:0x133 / me=hex / subme=7 / psy=1 / psy_rd=1.00:0.00 / mixed_ref=1 / me_range=16 / chroma_me=1 / trellis=1 / 8x8dct=1 / cqm=0 / deadzone=21,11 / fast_pskip=1 / chroma_qp_offset=-2 / threads=6 / lookahead_threads=1 / sliced_threads=0 / nr=0 / decimate=1 / interlaced=0 / bluray_compat=0 / constrained_intra=0 / bframes=3 / b_pyramid=2 / b_adapt=1 / b_bias=0 / direct=1 / weightb=1 / open_gop=0 / weightp=2 / keyint=250 / keyint_min=25 / scenecut=40 / intra_refresh=0 / rc_lookahead=40 / rc=crf / mbtree=1 / crf=20.0 / qcomp=0.60 / qpmin=10 / qpmax=51 / qpstep=4 / ip_ratio=1.40 / aq=1:1.00
Default : Yes
Forced : No
Audio
ID : 2
Format : MPEG Audio
Format version : Version 1
Format profile : Layer 3
Codec ID : A_MPEG/L3
Codec ID/Hint : MP3
Duration : 57 min 49 s
Bit rate mode : Constant
Bit rate : 128 kb/s
Channel(s) : 2 channels
Sampling rate : 48.0 kHz
Compression mode : Lossy
Delay relative to video : -67 ms
Stream size : 52.9 MiB (6%)
Writing library : LAME3.99.5
Language : Russian
Default : Yes
Forced : No

Скриншоты

[cybertorrent.ru].t4809.torrent 
Торрент: Зарегистрирован [ 2019-08-02 16:01 ] · 1F3D4964F0C505A61BA9069A3A35FF241287CD06

Скачать .torrent

Скачать

24 KB

Статус: проверено
Скачан: 0 раз
Размер: 8,32 GB
terms.php
Профиль [ЛС]
Показать сообщения:    

Текущее время: 17-Янв 13:34

Часовой пояс: UTC ± 0



Вы не можете начинать темы
Вы не можете отвечать на сообщения
Вы не можете редактировать свои сообщения
Вы не можете удалять свои сообщения
Вы не можете голосовать в опросах
Вы не можете прикреплять файлы к сообщениям
Вы можете скачивать файлы