BitTorrent клиенты



Ромина / Romina (Диего Коэн / Diego Cohen) [2018, Мексика, ужасы, триллер, WEB-DLRip] Sub Rus, Eng + Original Spa

Ответить на тему
Статистика раздачи
Размер:  1,45 GB   |    Зарегистрирован:  6 месяцев 30 дней   |    Скачан:  0 раз

Полного источника не было: Никогда

 
   
 
 
Автор Сообщение

GEEP ®

Пол: Не указан

Стаж: 1 год

Сообщений: 866

Создавать темы 22-Июл-2018 15:48

[Цитировать]

Ромина / Romina
Страна: Мексика
Жанр: ужасы, триллер
Год выпуска: 2018
Продолжительность: 01:14:30
Перевод: Субтитры
Субтитры: русские, английские
Оригинальная аудиодорожка: испанский
Режиссер: Диего Коэн / Diego Cohen
В ролях: Франциска Лозано, Вальтер Берхт, Роберто Бек, Виктор Бонилья, Оливер Нава, Эдуардо Негрете, Клаудия Зепеда

Описание: Во время отдыха на природе в отдаленном месте, группа подростков внезапно сталкивается с шокирующим насилием со стороны девчонки своей школы...
Сэмпл
Качество видео: WEB-DLRip
Формат видео: AVI
Видео: 720x304 (2.37:1), 24 fps, XviD build 73 ~2337 kbps avg, 0.45 bit/pixel
Аудио: 48 kHz, AC3 Dolby Digital, 3/2 (L,C,R,l,r) + LFE ch, ~448 kbps

Фрагмент субтитров

449
00:32:35,916 --> 00:32:37,875
Видишь? Всё в порядке, да?
450
00:32:37,958 --> 00:32:40,041
Спасибо, сэр, и извините.
451
00:32:41,250 --> 00:32:43,083
- Ты в порядке?
- Нет.
452
00:32:43,833 --> 00:32:46,166
Я хочу знать, что происходит.
453
00:32:49,333 --> 00:32:52,666
- Что это могло быть?
- Олень, волк, кто знает?
454
00:32:52,750 --> 00:32:55,291
Черт побери. Кто знает?
455
00:32:59,625 --> 00:33:01,625
Я хочу пива!
456
00:33:02,000 --> 00:33:03,500
Я тоже.
457
00:33:04,458 --> 00:33:06,125
Пива!
458
00:33:06,791 --> 00:33:10,500
- Нет! Мой костер!
- Разожги, мне холодно.
459
00:33:15,583 --> 00:33:18,750
Серьёзно, шорты в лесу -
самое плохое решение в моей жизни.
460
00:33:20,458 --> 00:33:21,916
А мне?
461
00:33:23,375 --> 00:33:26,458
- Эй!

MediaInfo

General
Complete name : H:\Romina.2018.web-dlrip_[1.46]_[teko]\Romina.2018.web-dlrip_[1.46].avi
Format : AVI
Format/Info : Audio Video Interleave
File size : 1.45 GiB
Duration : 1h 14mn
Overall bit rate : 2 795 Kbps
Writing application : VirtualDubMod 1.5.10.3 | www.virtualdub-fr.org || (build 2550/release)
Writing library : VirtualDubMod build 2550/release
Video
ID : 0
Format : MPEG-4 Visual
Format profile : Advanced Simple@L5
Format settings, BVOP : 2
Format settings, QPel : No
Format settings, GMC : No warppoints
Format settings, Matrix : Custom
Codec ID : XVID
Codec ID/Hint : XviD
Duration : 1h 14mn
Bit rate : 2 338 Kbps
Width : 720 pixels
Height : 304 pixels
Display aspect ratio : 2.35:1
Frame rate : 24.000 fps
Color space : YUV
Chroma subsampling : 4:2:0
Bit depth : 8 bits
Scan type : Progressive
Compression mode : Lossy
Bits/(Pixel*Frame) : 0.445
Stream size : 1.22 GiB (84%)
Writing library : XviD 73
Audio
ID : 1
Format : AC-3
Format/Info : Audio Coding 3
Mode extension : CM (complete main)
Format settings, Endianness : Big
Codec ID : 2000
Duration : 1h 14mn
Bit rate mode : Constant
Bit rate : 448 Kbps
Channel(s) : 6 channels
Channel positions : Front: L C R, Side: L R, LFE
Sampling rate : 48.0 KHz
Frame rate : 31.250 fps (1536 spf)
Compression mode : Lossy
Stream size : 239 MiB (16%)
Alignment : Split accross interleaves
Interleave, duration : 42 ms (1.00 video frame)
Interleave, preload duratio : 500 ms
Релиз группы:
--
[cybertorrent.ru].t48095.torrent 
Торрент: Зарегистрирован [ 2018-07-22 15:50 ] · C65D90466C8FB058A8E4D9E12E099E7F61F91CF3

Скачать .torrent

Скачать

15 KB

Статус: проверено
Скачан: 0 раз
Размер: 1,45 GB
terms.php
[Профиль] [ЛС]
Показать сообщения:    
Ответить на тему

Текущее время: 22-Фев 03:34

Часовой пояс: UTC + 3



Вы не можете начинать темы
Вы не можете отвечать на сообщения
Вы не можете редактировать свои сообщения
Вы не можете удалять свои сообщения
Вы не можете голосовать в опросах
Вы не можете прикреплять файлы к сообщениям
Вы можете скачивать файлы