Статистика раздачи
Размер:  5,49 GB   |    Зарегистрирован:  6 месяцев 29 дней   |    Скачан:  0 раз

Полного источника не было: Никогда

   
 

Гость ®

Пол:
Не указан

Фантом
Год выпуска: 2019
Производство: Россия, Украина, Film.ua
Жанр: детектив, триллер
Продолжительность: ~00:49:00 серия
Субтитры: нет
Режиссёр: Сергей Сенцов
В ролях: Юрий Чурсин, Павел Майков, Тимофей Трибунцев, Михаил Кремер, Ян Гахарманов, Михаил Тарабукин, Лиза Толубеева, Зоя Бербер, Полина Сидихина, Сергей Епишев, Александр Галибин, Виктор Проскурин
Описание: В клинике, где проходят реабилитацию люди с психическими расстройствами, приходит в чувства утративший память мужчина. Даже доктора не имеют малейшего представления о прошлом данного пациента. Они знают только имя. Иван пребывает в режимном учреждении на протяжении последнего года. Весь этот период его пичкают сильнейшими препаратами . Единственный, кому известна истина – это директор, но он не успел поделиться правдой. Руководитель лечебницы погибает при таинственных обстоятельствах. Во время следственных мероприятий мужчина узнает одного из оперативников. Между ним и Станиславом складываются сложные взаимоотношения, но к делу подключается Артур – сосед по больничной палате. Действия своеобразного тандема позволяют установить личность убийцы. Неожиданно для Вани к нему в гости наведывается супруга в компании лучшего друга. Они пытаются объяснить, что его настоящее имя - Павел. Ранее он был весьма успешным воротилой в сфере фармацевтического бизнеса. Но недоброжелатели решили избавиться от конкурента и подстроили его исчезновение. Не менее интересной оказывается жизнь Артура, ведь его истинная личина сильно отличается от выбранного образа.

Реклама: Нет.
Кино-театр
Все раздачи сериала
Sample
Качество: WEBRip 720p - Olyanchik
Формат: MKV
Видео кодек: H.264
Аудио кодек: AC3
Видео: MPEG4 AVC Video, H264, 16:9, 1280x720, 25 fps, ~3000 kbps, 0.130 bit/pixel
Аудио: AC3 Dolby Digital, 48.0 kHz, 2/0 (L,R) ch, 192 kbps

Внимание! Раздача ведётся путём добавления новых серий

Раздача ведётся путём добавления новых серий, при каждом добавлении создаётся новый торрент. Чтобы начать докачку новой серии, пользователям необходимо сделать следующее:
- Остановить скачивание.
- Удалить старый торрент у себя из клиента (старые серии удалять не надо).
- Скачать новый торрент и запустить его у себя в клиенте вместо старого, при этом указать клиенту путь в старую папку куда и должно происходить скачивание новых серий.
Ваш клиент при этом должен произвести хеширование (проверку) старой папки (если не производит сам - помогите ему сделать это), и будет докачивать только те серии которых у вас ещё нет. Старые серии при этом не удаляются, а продолжают раздаваться!
Если вы уже удалили старые серии, то предотвратить повторную закачку старых серий можно, отжав галочку в соответствующих местах при запуске нового торрента. По возможности, желательно не удалять старые серии как можно дольше, чтобы релизер не столько продолжал раздавать старые серии, а смог сконцентрироваться на новых.

MI

General
Unique ID : 238128921441295894551106353452460346067 (0xB325F6487092F1A19B9251F3F4850AD3)
Complete name : D:\Fantom.2019.WEB-DL.(720р).Kinozal-Reliz.by.Olyanchik\01.Fantom.2019.WEB-DL.(720р).Kinozal-Reliz.by.Olyanchik.mkv
Format : Matroska
Format version : Version 4 / Version 2
File size : 1.10 GiB
Duration : 49 min 54 s
Overall bit rate : 3 160 kb/s
Encoded date : UTC 2019-03-11 21:38:14
Writing application : mkvmerge v9.6.0 ('Slave To Your Mind') 64bit
Writing library : libebml v1.3.4 + libmatroska v1.4.5
Video
ID : 1
Format : AVC
Format/Info : Advanced Video Codec
Format profile : High@L3.1
Format settings : CABAC / 4 Ref Frames
Format settings, CABAC : Yes
Format settings, ReFrames : 4 frames
Codec ID : V_MPEG4/ISO/AVC
Duration : 49 min 54 s
Bit rate : 3 000 kb/s
Width : 1 280 pixels
Height : 720 pixels
Display aspect ratio : 16:9
Frame rate mode : Constant
Frame rate : 25.000 FPS
Color space : YUV
Chroma subsampling : 4:2:0
Bit depth : 8 bits
Scan type : Progressive
Bits/(Pixel*Frame) : 0.130
Stream size : 1.03 GiB (94%)
Writing library : x264 core 142 r2491 24e4fed
Encoding settings : cabac=1 / ref=3 / deblock=1:0:0 / analyse=0x3:0x113 / me=hex / subme=7 / psy=1 / psy_rd=1.00:0.00 / mixed_ref=1 / me_range=16 / chroma_me=1 / trellis=1 / 8x8dct=1 / cqm=0 / deadzone=21,11 / fast_pskip=1 / chroma_qp_offset=-2 / threads=16 / lookahead_threads=2 / sliced_threads=0 / nr=0 / decimate=1 / interlaced=0 / bluray_compat=0 / constrained_intra=0 / bframes=3 / b_pyramid=2 / b_adapt=1 / b_bias=0 / direct=1 / weightb=1 / open_gop=0 / weightp=2 / keyint=250 / keyint_min=25 / scenecut=40 / intra_refresh=0 / rc_lookahead=40 / rc=abr / mbtree=1 / bitrate=3000 / ratetol=1.0 / qcomp=0.60 / qpmin=0 / qpmax=69 / qpstep=4 / ip_ratio=1.40 / aq=1:1.00
Default : Yes
Forced : No
Color range : Limited
Transfer characteristics : BT.601
Matrix coefficients : BT.601
Audio
ID : 2
Format : AC-3
Format/Info : Audio Coding 3
Codec ID : A_AC3
Duration : 49 min 54 s
Bit rate mode : Constant
Bit rate : 192 kb/s
Channel(s) : 2 channels
Channel positions : Front: L R
Sampling rate : 48.0 kHz
Frame rate : 31.250 FPS (1536 SPF)
Bit depth : 16 bits
Compression mode : Lossy
Stream size : 68.5 MiB (6%)
Service kind : Complete Main
Default : Yes
Forced : No

Скриншоты


[cybertorrent.ru].t481.torrent 
Торрент: Зарегистрирован [ 2019-03-18 13:08 ] · B65C6B54E573CA3AB586383AAA1EE08214BA87C7

Скачать .torrent

Скачать

28 KB

Статус: проверено
Скачан: 0 раз
Размер: 5,49 GB
terms.php
Показать сообщения:    

Текущее время: 17-Окт 08:26

Часовой пояс: UTC ± 0



Вы не можете начинать темы
Вы не можете отвечать на сообщения
Вы не можете редактировать свои сообщения
Вы не можете удалять свои сообщения
Вы не можете голосовать в опросах
Вы не можете прикреплять файлы к сообщениям
Вы можете скачивать файлы