Статистика раздачи
Размер:  1,45 GB   |    Зарегистрирован:  3 месяца 12 дней   |    Скачан:  0 раз

Полного источника не было: Никогда

 
   
 
 

lopster ®

Пол:
Не указан
Стаж:
3 месяца 12 дней
Сообщений:
612

Пурга
Выпущено: Россия, ЗАО «Дирекция Кино»
Жанр: комедия
Год выпуска: 2018
Продолжительность: 01:32:36
Субтитры: нет-Режиссер: Игорь Зайцев-В ролях: Виктор Хориняк, Александра Тюфтей, Юлия Ковалёва, Роман Мадянов, Ростислав Бершауэр, Михаил Евланов, Максим Литовченко, Максим Битюков, Наталья Рычкова, Людмила Полякова, Нелли Неведина, Ирина Бякова, Виктор Супрун, Сергей Шеховцов, Денис Филимонов, Евгений Мундум, Юрий Ваксман-Описание: Оперативник криминальной полиции Женя Никифоров однажды сделал выбор между долгом и чувством. Спустя год Женя не может решить, что же правильней - быть честным по любви или счастливым по расчету? В канун Нового года его случайный знакомый Дед Мороз дает ему весьма необычный совет искупаться в снегу и загадать желание. Оно непременно исполнится, но при одном условии - нужно, как в детстве, точно знать, чего ты на самом деле хочешь.-Качество видео: WEB-DLRip
Формат видео: AVI
Видео: 720x400 (1.80:1), 25 fps, XviD build 73 ~2047 kbps avg, 0.28 bit/pixel
Аудио: 48 kHz, AC3 Dolby Digital, 2/0 (L,R) ch, ~192 kbps-Сэмпл-

MediaInfo

Код:Format : AVI
Format/Info : Audio Video Interleave
File size : 1.45 GiB
Duration : 1 h 32 min
Overall bit rate : 2 249 kb/s
Writing application : VirtualDubMod 1.5.10.3 | www.virtualdub-fr.org || (build 2550/release)
Writing library : VirtualDubMod build 2550/release
Video
ID : 0
Format : MPEG-4 Visual
Format profile : Advanced Simple@L5
Format settings : BVOP1 / Custom Matrix
Format settings, BVOP : 1
Format settings, QPel : No
Format settings, GMC : No warppoints
Format settings, Matrix : Custom
Codec ID : XVID
Codec ID/Hint : XviD
Duration : 1 h 32 min
Bit rate : 2 048 kb/s
Width : 720 pixels
Height : 400 pixels
Display aspect ratio : 16:9
Frame rate : 25.000 FPS
Color space : YUV
Chroma subsampling : 4:2:0
Bit depth : 8 bits
Scan type : Progressive
Compression mode : Lossy
Bits/(Pixel*Frame) : 0.284
Stream size : 1.32 GiB (91%)
Writing library : XviD 73
Audio
ID : 1
Format : AC-3
Format/Info : Audio Coding 3
Codec ID : 2000
Duration : 1 h 32 min
Bit rate mode : Constant
Bit rate : 192 kb/s
Channel(s) : 2 channels
Channel positions : Front: L R
Sampling rate : 48.0 kHz
Frame rate : 31.250 FPS (1536 SPF)
Bit depth : 16 bits
Compression mode : Lossy
Stream size : 127 MiB (9%)
Alignment : Split accross interleaves
Interleave, duration : 40 ms (1.00 video frame)
Interleave, preload duratio : 500 ms
Service kind : Complete Main

Скриншоты

[cybertorrent.ru].t482.torrent 
Торрент: Зарегистрирован [ 2018-02-15 15:48 ] · 4CD39001F692818E9DDFE00789737B69D6B9DE04

Скачать .torrent

Скачать

15 KB

Статус: проверено
Скачан: 0 раз
Размер: 1,45 GB
Профиль [ЛС]
Показать сообщения:    

Текущее время: 28-Май 03:26

Часовой пояс: UTC ± 0



Вы не можете начинать темы
Вы не можете отвечать на сообщения
Вы не можете редактировать свои сообщения
Вы не можете удалять свои сообщения
Вы не можете голосовать в опросах
Вы не можете прикреплять файлы к сообщениям
Вы можете скачивать файлы