Статистика раздачи
Размер:  1,47 GB   |    Зарегистрирован:  7 месяцев 1 день   |    Скачан:  0 раз

Полного источника не было: Никогда

   
 

serzh ®

Пол:
Не указан
Стаж:
7 месяцев 7 дней
Сообщений:
384

Рэмбо 3 / Rambo III
Страна: США
Жанр: боевик, приключения, триллер
Год выпуска: 1988
Продолжительность: 01:42:29
Перевод: Авторский (одноголосый закадровый) Виктор Махонько
Перевод 2: Одноголосый закадровый Неизвестный - женский
Субтитры: нет
Режиссер: Питер МакДональд / Peter MacDonald
В ролях: Сильвестр Сталлоне, Ричард Кренна, Марк де Джонг, Кертвуд Смит, Спирос Фокас, Сэссон Габай, Дуди Шуа, Рэнди Рэйни, Маркус Гилберт
Описание: Джон Рэмбо отошёл от дел, ему больше не хочется воевать и убивать людей. Теперь он поселился в буддийском монастыре, где-то в дебрях Тайланда. Ветеран занимается сельских хозяйством и иногда, чтобы не терять форму, бьёт лица за деньги, участвуя в подпольных боях без правил. Джона находит его бывший командир, чтобы попросить его о помощи в опасной военной операции. "Это не моя война" говорит Джон и в категорической форме отказывает старому сослуживцу. Не солоно хлебавший тот отправляется один на задание. Операция раскрыта злобными русскими и офицер оказывается в плену у советских войск. Тем временем Рэмбо узнаёт о трагическом исходе мероприятия и решает вызволить боевого товарища из заточения, попутно уничтожив всех оккупантов свободного Афганистана.
Доп. информация: Выражаю огромную благодарность Нордеру за синхронизацию звуковых дорожек. За дороги благодарим RoxMarty
Сэмпл: http://multi-up.com/1226162
Качество видео: BDRip (Исходник BDRemux 1080p)
Формат видео: AVI
Видео: XviD 73, 720x304, (2,35:1), 23.976 fps, 1603 Кбит/с, 8 бит, 0.30 bit/pixel
Аудио: Русский (АС3, 2 ch (Front: L R), 48,0 KHz, 224 Kbps) Виктор Махонько
Аудио 2: Русский (АС3, 2 ch (Front: L R), 48,0 KHz, 224 Kbps) Неизвестный - женский

MediaInfo

Общее
Полное имя : D:\Фильмы на трекер\Рэмбо 3 (боевик, приключения 1988 год).avi
Формат : AVI
Формат/Информация : Audio Video Interleave
Размер файла : 1,47 Гбайт
Продолжительность : 1 ч. 41 м.
Общий поток : 2065 Кбит/сек
Программа кодирования : VirtualDubMod 1.5.10.2 (build 2540/release)
Библиотека кодирования : VirtualDubMod build 2540/release
Видео
Идентификатор : 0
Формат : MPEG-4 Visual
Профиль формата : Advanced Simple@L5
Параметр BVOP формата : 2
Параметр QPel формата : Нет
Параметр GMC формата : Без точки перехода
Параметр матрицы формата : Выборочная
Идентификатор кодека : XVID
Идентификатор кодека/Подсказка : XviD
Продолжительность : 1 ч. 41 м.
Битрейт : 1603 Кбит/сек
Ширина : 720 пикселей
Высота : 304 пикселя
Соотношение сторон : 2,35:1
Частота кадров : 23,976 (23976/1000) кадра/сек
Цветовое пространство : YUV
Субдискретизация насыщенности : 4:2:0
Битовая глубина : 8 бит
Тип развёртки : Прогрессивная
Метод сжатия : С потерями
Бит/(Пиксели*Кадры) : 0.306
Размер потока : 1,14 Гбайт (78%)
Библиотека кодирования : XviD 73
Аудио #1
Идентификатор : 1
Формат : AC-3
Формат/Информация : Audio Coding 3
Расширение режима : CM (complete main)
Параметр Endianness формата : Big
Идентификатор кодека : 2000
Продолжительность : 1 ч. 41 м.
Вид битрейта : Постоянный
Битрейт : 224 Кбит/сек
Каналы : 2 канала
Расположение каналов : Front: L R
Частота : 48,0 КГц
Частота кадров : 31,250 кадров/сек (1536 spf)
Метод сжатия : С потерями
Размер потока : 163 Мбайт (11%)
Выравнивание : Разделение по промежуткам
Продолжительность промежутка : 42 мс. (1,00 видеокадр)
Время предзагрузки промежутка : 500 мс.
Аудио #2
Идентификатор : 2
Формат : AC-3
Формат/Информация : Audio Coding 3
Расширение режима : CM (complete main)
Параметр Endianness формата : Big
Идентификатор кодека : 2000
Продолжительность : 1 ч. 41 м.
Вид битрейта : Постоянный
Битрейт : 224 Кбит/сек
Каналы : 2 канала
Расположение каналов : Front: L R
Частота : 48,0 КГц
Частота кадров : 31,250 кадров/сек (1536 spf)
Метод сжатия : С потерями
Размер потока : 163 Мбайт (11%)
Выравнивание : Разделение по промежуткам
Продолжительность промежутка : 42 мс. (1,00 видеокадр)
Время предзагрузки промежутка : 500 мс.

Скриншот c названием фильма

Скриншоты

[cybertorrent.ru].t483.torrent 
Торрент: Зарегистрирован [ 2019-03-18 13:08 ] · C0609F2D2C6AEB27334DF361D9ECAE1679A838B5

Скачать .torrent

Скачать

15 KB

Статус: проверено
Скачан: 0 раз
Размер: 1,47 GB
terms.php
Профиль ЛС
Показать сообщения:    

Текущее время: 20-Окт 11:57

Часовой пояс: UTC ± 0



Вы не можете начинать темы
Вы не можете отвечать на сообщения
Вы не можете редактировать свои сообщения
Вы не можете удалять свои сообщения
Вы не можете голосовать в опросах
Вы не можете прикреплять файлы к сообщениям
Вы можете скачивать файлы