Статистика раздачи
Размер:  1,37 GB   |    Зарегистрирован:  3 месяца 6 дней   |    Скачан:  0 раз
Сидов:  259  [  0 KB/s  ]   Личеров:  15  [  0 KB/s  ]  
 
   
 
 

lopster ®

Пол:
Не указан
Стаж:
3 месяца 6 дней
Сообщений:
612

Вторая молодость- Жанр: Мелодрама
Год выпуска: 2017
Продолжительность: 01:40:00-Режиссёр: Максим Субботин-В ролях: Алёна Хмельницкая, Евгений Шириков, Дмитрий Ячевский, Прохор Дубравин, Марина Митрофанова, Галина Кашковская, Александр Песков, Анастасия Дубровина, Ольга Богомазова, Илья Сологуб-Описание: Проработав двадцать лет в галерее, Ирина (Алена Хмельницкая), наконец, решает уволиться, чтобы посвятить себя дому и семье. Однако вскоре выясняется, что ни мужу, ни взрослым дочерям ее заботы не нужны. Ее муж Борис (Дмитрий Ячевский) - владелец строительного бизнеса, с утра до ночи пропадает на стройке, старшая дочь живет с семьей за границей, а младшая Юля (Марина Митрофанова) увлечена романом с женатым мужчиной (Прохор Дубравин). Ира пытается отговорить дочь от этой связи, но та просит мать не лезть в ее жизнь. Чтобы занять себя, Ирина идет учиться в школу живописи. В нее влюбляется молодой и талантливой педагог и художник Максим (Евгений Шириков). Вопреки значительной разнице в возрасте и другим серьезным обстоятельствам у них начинается роман. Ирина корит себя за легкомыслие, ведь все это может разрушить ее семью, но ничего не может поделать… в сорок пять лет у нее начинается вторая молодость.-Сэмпл: http://multi-up.com/1182425-Релиз группа: -Качество видео: WEB-DLRip
Формат видео: AVI
Видео: 720x400 (16:9), 25.000 fps, XviD build 73, 1744 Kbps, 0.24 bits/pixel
Аудио: 48 kHz, AC3 Dolby Digital, 2 ch, 192 Kbps

MediaInfo

General
Complete name : Downloads\Вторая молодость-2017.WEB-DLRip.Files-x.avi
Format : AVI
Format/Info : Audio Video Interleave
File size : 1.37 GiB
Duration : 1h 40mn
Overall bit rate : 1 945 Kbps
Writing application : VirtualDubMod 1.5.10.3 | www.virtualdub-fr.org || (build 2550/release)
Writing library : VirtualDubMod build 2550/release
Video #0
ID : 0
Format : MPEG-4 Visual
Format profile : Advanced Simple@L5
Format settings, BVOP : 1
Format settings, QPel : No
Format settings, GMC : No warppoints
Format settings, Matrix : Custom
Codec ID : XVID
Codec ID/Hint : XviD
Duration : 1h 40mn
Bit rate : 1 744 Kbps
Width : 720 pixels
Height : 400 pixels
Display aspect ratio : 16:9
Frame rate : 25.000 fps
Color space : YUV
Chroma subsampling : 4:2:0
Bit depth : 8 bits
Scan type : Progressive
Compression mode : Lossy
Bits/(Pixel*Frame) : 0.242
Stream size : 1.23 GiB (90%)
Writing library : XviD 73
Audio #1
ID : 1
Format : AC-3
Format/Info : Audio Coding 3
Mode extension : CM (complete main)
Format settings, Endianness : Big
Codec ID : 2000
Duration : 1h 40mn
Bit rate mode : Constant
Bit rate : 192 Kbps
Channel(s) : 2 channels
Channel positions : Front: L R
Sampling rate : 48.0 KHz
Bit depth : 16 bits
Compression mode : Lossy
Stream size : 138 MiB (10%)
Alignment : Split accross interleaves
Interleave, duration : 40 ms (1.00 video frame)
Interleave, preload duration : 500 ms

Скриншот c названием фильма

Скриншоты

[cybertorrent.ru].t483.torrent 
Торрент: Зарегистрирован [ 2018-02-15 15:48 ] · 689E7CBE70A013D6DB31C7B870E228FCC23A9937

Скачать .torrent

Скачать

14 KB

Статус: проверено
Скачан: 0 раз
Размер: 1,37 GB
Профиль [ЛС]
Показать сообщения:    

Текущее время: 22-Май 00:20

Часовой пояс: UTC ± 0



Вы не можете начинать темы
Вы не можете отвечать на сообщения
Вы не можете редактировать свои сообщения
Вы не можете удалять свои сообщения
Вы не можете голосовать в опросах
Вы не можете прикреплять файлы к сообщениям
Вы можете скачивать файлы