Статистика раздачи
Размер:  744 MB   |    Зарегистрирован:  3 месяца 11 дней   |    Скачан:  0 раз

Полного источника не было: Никогда

 
   
 
 

lopster ®

Пол:
Не указан
Стаж:
3 месяца 11 дней
Сообщений:
612

Пурга
Выпущено: Россия, ЗАО «Дирекция Кино»
Жанр: комедия
Год выпуска: 2018
Продолжительность: 01:32:36
Субтитры: нет-Режиссер: Игорь Зайцев-В ролях: Виктор Хориняк, Александра Тюфтей, Юлия Ковалёва, Роман Мадянов, Ростислав Бершауэр, Михаил Евланов, Максим Литовченко, Максим Битюков, Наталья Рычкова, Людмила Полякова, Нелли Неведина, Ирина Бякова, Виктор Супрун, Сергей Шеховцов, Денис Филимонов, Евгений Мундум, Юрий Ваксман-Описание: Оперативник криминальной полиции Женя Никифоров однажды сделал выбор между долгом и чувством. Спустя год Женя не может решить, что же правильней - быть честным по любви или счастливым по расчету? В канун Нового года его случайный знакомый Дед Мороз дает ему весьма необычный совет искупаться в снегу и загадать желание. Оно непременно исполнится, но при одном условии - нужно, как в детстве, точно знать, чего ты на самом деле хочешь.-Качество видео: WEB-DLRip
Формат видео: AVI
Видео: 688x384 (1.79:1), 25 fps, XviD build 73 ~984 kbps avg, 0.15 bit/pixel
Аудио: 48 kHz, MPEG Layer 3, 2 ch, ~128.00 kbps avg-Сэмпл-

MediaInfo

Код:Format : AVI
Format/Info : Audio Video Interleave
File size : 744 MiB
Duration : 1 h 32 min
Overall bit rate : 1 123 kb/s
Writing application : VirtualDubMod 1.5.10.3 | www.virtualdub-fr.org || (build 2550/release)
Writing library : VirtualDubMod build 2550/release
Video
ID : 0
Format : MPEG-4 Visual
Format profile : Advanced Simple@L5
Format settings : BVOP1
Format settings, BVOP : 1
Format settings, QPel : No
Format settings, GMC : No warppoints
Format settings, Matrix : Default (H.263)
Codec ID : XVID
Codec ID/Hint : XviD
Duration : 1 h 32 min
Bit rate : 985 kb/s
Width : 688 pixels
Height : 384 pixels
Display aspect ratio : 16:9
Frame rate : 25.000 FPS
Color space : YUV
Chroma subsampling : 4:2:0
Bit depth : 8 bits
Scan type : Progressive
Compression mode : Lossy
Bits/(Pixel*Frame) : 0.149
Stream size : 652 MiB (88%)
Writing library : XviD 73
Audio
ID : 1
Format : MPEG Audio
Format version : Version 1
Format profile : Layer 3
Codec ID : 55
Codec ID/Hint : MP3
Duration : 1 h 32 min
Bit rate mode : Constant
Bit rate : 128 kb/s
Channel(s) : 2 channels
Sampling rate : 48.0 kHz
Frame rate : 41.667 FPS (1152 SPF)
Compression mode : Lossy
Stream size : 84.8 MiB (11%)
Alignment : Aligned on interleaves
Interleave, duration : 40 ms (1.00 video frame)
Interleave, preload duratio : 504 ms
Writing library : LAME3.99r
Encoding settings : -m s -V 4 -q 2 -lowpass 17 -b 128

Скриншоты

[cybertorrent.ru].t484.torrent 
Торрент: Зарегистрирован [ 2018-02-15 15:48 ] · F8BB0B0D33898AD4FBD7C7A37FF795EC0FFE2FC8

Скачать .torrent

Скачать

15 KB

Статус: проверено
Скачан: 0 раз
Размер: 744 MB
Профиль [ЛС]
Показать сообщения:    

Текущее время: 27-Май 01:39

Часовой пояс: UTC ± 0



Вы не можете начинать темы
Вы не можете отвечать на сообщения
Вы не можете редактировать свои сообщения
Вы не можете удалять свои сообщения
Вы не можете голосовать в опросах
Вы не можете прикреплять файлы к сообщениям
Вы можете скачивать файлы