Статистика раздачи
Размер:  1,37 GB   |    Зарегистрирован:  3 месяца 11 дней   |    Скачан:  0 раз

Полного источника не было: Никогда

 
   
 
 

lopster ®

Пол:
Не указан
Стаж:
3 месяца 11 дней
Сообщений:
612

Сибирский потрошитель
Жанр: триллер, драма
Год выпуска: 2016
Продолжительность: 01:20:00
Режиссёр: Сергей Жизненный
В ролях: Дарья Рева, Юлия Радаева, Анастасия Комарова, Вера Базанова, Алексей Шарков, Александр Пикалов, Юрий Борисенко, Елена Речкова, Евгения Ширяева, Илья Бородин, Татьяна Филиппова, Анна Евтина, Екатерина Воронцова, Кирилл Игнатов, Дмитрий Нестеров, Пётр Романенко, Вадим Белобородов, Андроник Гейвах, Сергей Жизненный

Описание: Фильм основан на реальных событиях, повествующий о тяжких злодеяниях российского серийного убийцы, каннибала — Александра Николаевича Спесивцева, получившего прозвище "Сибирский потрошитель"...
Доп. информация: Внимание: В фильме присутствуют сцены жестокости. Возрастное ограничение - 18+
Sample
Качество видео: WEB-DLRip
Формат видео: AVI
Видео: 720x288 (2.50:1), 25 fps, XviD build 73 ~2255 kbps avg, 0.44 bit/pixel
Аудио: 48 kHz, AC3 Dolby Digital, 2/0 (L,R) ch, ~192 kbps

MediaInfo

General
Complete name : D:\Сибирский потрошитель 2016.avi
Format : AVI
Format/Info : Audio Video Interleave
File size : 1.37 GiB
Duration : 1h 20mn
Overall bit rate : 2 458 Kbps
Writing application : VirtualDubMod 1.5.10.2 (build 2542/release)
Writing library : VirtualDubMod build 2542/release
Video
ID : 0
Format : MPEG-4 Visual
Format profile : Advanced Simple@L5
Format settings, BVOP : 1
Format settings, QPel : No
Format settings, GMC : No warppoints
Format settings, Matrix : Custom
Codec ID : XVID
Codec ID/Hint : XviD
Duration : 1h 20mn
Bit rate : 2 256 Kbps
Width : 720 pixels
Height : 288 pixels
Display aspect ratio : 2.500
Frame rate : 25.000 fps
Color space : YUV
Chroma subsampling : 4:2:0
Bit depth : 8 bits
Scan type : Progressive
Compression mode : Lossy
Bits/(Pixel*Frame) : 0.435
Stream size : 1.26 GiB (92%)
Writing library : XviD 73
Audio
ID : 1
Format : AC-3
Format/Info : Audio Coding 3
Mode extension : CM (complete main)
Format settings, Endianness : Big
Codec ID : 2000
Duration : 1h 20mn
Bit rate mode : Constant
Bit rate : 192 Kbps
Channel count : 2 channels
Channel positions : Front: L R
Sampling rate : 48.0 KHz
Bit depth : 16 bits
Compression mode : Lossy
Stream size : 110 MiB (8%)
Alignment : Split accross interleaves
Interleave, duration : 40 ms (1.00 video frame)
Interleave, preload duration : 500 ms

Скриншот c названием фильма

Скриншоты


[cybertorrent.ru].t485.torrent 
Торрент: Зарегистрирован [ 2018-02-15 15:48 ] · 1F5EC68EFBCDB18CE8307DA6768485111338E42C

Скачать .torrent

Скачать

14 KB

Статус: проверено
Скачан: 0 раз
Размер: 1,37 GB
Профиль [ЛС]
Показать сообщения:    

Текущее время: 27-Май 01:37

Часовой пояс: UTC ± 0



Вы не можете начинать темы
Вы не можете отвечать на сообщения
Вы не можете редактировать свои сообщения
Вы не можете удалять свои сообщения
Вы не можете голосовать в опросах
Вы не можете прикреплять файлы к сообщениям
Вы можете скачивать файлы