Статистика раздачи
Размер:  3,4 GB   |    Зарегистрирован:  5 месяцев 21 день   |    Скачан:  0 раз

Полного источника не было: Никогда

 
     
 
 

ondreyko ®

Пол:
Не указан
Стаж:
9 месяцев 30 дней
Сообщений:
65

Продвижение Нобуты / Nobuta wo Produce / 野ブタ。をプロデュース
Страна: Япония
Год выпуска: 2005
Жанр: драма, комедия, школа
Продолжительность: 10 серии по ~ 45-70 мин.
Режиссеры: Ивамото Хитоши, Китагава Кэйичи, Сакума Нориёши

В ролях:
Камэнаши Казуя
Ямашита Томохиса
Хорикита Маки
Тода Эрика
Укаджи Такаши
Фукаура Канако и другие

Перевод: Двухголосое Закадровое Озвучивание
Описание: Трогательная история о том, как двое одноклассников в шутку решили помочь затюканной девушке Котани Нобуко (Нобута), только что переведенной в их класс, спастись от школьных унижений. С этого момента, сами того не понимая, ребята стали менять не только жизнь Нобуко, но и свои собственные.© Алексей Фадеев, World Art-Озвучивание:

Куратор проекта: Вадим Химеров
Текст читали:
● Вадим Химеров
● yuki

Тайминг:
● Вадим Химеров (мужские реплики)
● Yuki (женские реплики)

Звукорежиссура: Вадим Химеров
Контроль качества: Вадим Химеров
Сэмпл
Перевод: Maxx-Неотключаемые субтитры: Без хардсаба
Качество видео: HDTVRip
Формат: MKV
Видео: DivX 5, 1024x576, 29.97fps, ~2573 Kbps
Аудио 1: AC-3, Stereo, 48.0 kHz, 192 kbps, Язык Русский (в составе контейнера)
Аудио 2: MP3, Stereo, 48.0 kHz, 192 Kbps, Язык Японский (в составе контейнера)
Субтитры: Язык Русский (в составе контейнера)

MediaInfo

General
Unique ID : 285267492201546301775695585109407302433 (0xD69C85420D451D7C4A6AAB93C9220321)
Complete name : D:\Вадим Химеров\Lone Wolf\Релизы\Кино\[Lone Wolf feat. YUKI.STEREO] Продвижение Нобуты (Nobuta wo Produce)\[Lone Wolf feat. YUKI.STEREO] Nobuta wo Produce - 01 [1024x576 DivX511].mkv
Format : Matroska
Format version : Version 4 / Version 2
File size : 1.48 GiB
Duration : 1h 10mn
Overall bit rate : 3 017 Kbps
Encoded date : UTC 2019-05-14 17:10:32
Writing application : mkvmerge v24.0.0 ('Beyond The Pale') 64-bit
Writing library : libebml v1.3.6 + libmatroska v1.4.9
DURATION : 01:10:04.320000000
NUMBER_OF_FRAMES : 131385
NUMBER_OF_BYTES : 100903680
_STATISTICS_WRITING_APP : mkvmerge v24.0.0 ('Beyond The Pale') 64-bit
_STATISTICS_WRITING_DATE_UTC : 2019-05-14 17:10:32
_STATISTICS_TAGS : BPS DURATION NUMBER_OF_FRAMES NUMBER_OF_BYTES
Video
ID : 1
Format : MPEG-4 Visual
Format settings, BVOP : 1
Format settings, QPel : No
Format settings, GMC : No warppoints
Format settings, Matrix : Default (H.263)
Muxing mode : Packed bitstream
Codec ID : V_MS/VFW/FOURCC / DX50
Codec ID/Hint : DivX 5
Duration : 1h 10mn
Bit rate : 2 573 Kbps
Width : 1 024 pixels
Height : 576 pixels
Display aspect ratio : 16:9
Frame rate mode : Constant
Frame rate : 29.970 fps
Color space : YUV
Chroma subsampling : 4:2:0
Bit depth : 8 bits
Scan type : Progressive
Compression mode : Lossy
Bits/(Pixel*Frame) : 0.146
Stream size : 1.26 GiB (85%)
Title : Nobuta wo Produce
Writing library : DivX 5.1.1 (Maupiti) (UTC 2003-11-19)
Language : Japanese
Default : Yes
Forced : No
Audio #1
ID : 2
Format : AC-3
Format/Info : Audio Coding 3
Mode extension : CM (complete main)
Format settings, Endianness : Big
Codec ID : A_AC3
Duration : 1h 10mn
Bit rate mode : Constant
Bit rate : 192 Kbps
Channel(s) : 2 channels
Channel positions : Front: L R
Sampling rate : 48.0 KHz
Compression mode : Lossy
Stream size : 96.2 MiB (6%)
Title : Вадим Химеров и Yuki
Language : Russian
Default : Yes
Forced : No
Audio #2
ID : 3
Format : MPEG Audio
Format version : Version 1
Format profile : Layer 3
Mode : Joint stereo
Mode extension : MS Stereo
Codec ID : A_MPEG/L3
Codec ID/Hint : MP3
Duration : 1h 10mn
Bit rate mode : Constant
Bit rate : 192 Kbps
Channel(s) : 2 channels
Sampling rate : 48.0 KHz
Compression mode : Lossy
Stream size : 96.2 MiB (6%)
Title : Original
Writing library : LAME3.92
Language : Japanese
Default : No
Forced : No
Text #1
ID : 4
Format : ASS
Codec ID : S_TEXT/ASS
Codec ID/Info : Advanced Sub Station Alpha
Compression mode : Lossless
Title : Надписи/Пояснения
Language : Russian
Default : Yes
Forced : No
Text #2
ID : 5
Format : ASS
Codec ID : S_TEXT/ASS
Codec ID/Info : Advanced Sub Station Alpha
Compression mode : Lossless
Title : Maxx
Language : Russian
Default : No
Forced : No

Отличия от других раздач

https://cybertorrent.ru/viewtopic.php?t=3301389 - наличие русской озвучки
https://cybertorrent.ru/viewtopic.php?t=3503507 - альтернативная озвучка, большее разрешение
https://cybertorrent.ru/viewtopic.php?t=240193 - наличие русской озвучки, большее разрешение

Скриншоты

Добавлена 3-я серия. Просьба перекачать торрент.
[cybertorrent.ru].t4863.torrent 
Торрент: Зарегистрирован [ 2019-08-02 16:01 ] · 45BDBE1ECD6F724FC1C7B7E7D25F994DD0092D21

Скачать .torrent

Скачать

18 KB

Статус: проверено
Скачан: 0 раз
Размер: 3,4 GB
terms.php
Профиль [ЛС]
Показать сообщения:    

Текущее время: 24-Янв 07:38

Часовой пояс: UTC ± 0



Вы не можете начинать темы
Вы не можете отвечать на сообщения
Вы не можете редактировать свои сообщения
Вы не можете удалять свои сообщения
Вы не можете голосовать в опросах
Вы не можете прикреплять файлы к сообщениям
Вы можете скачивать файлы