Статистика раздачи
Размер:  1,46 GB   |    Зарегистрирован:  3 месяца 10 дней   |    Скачан:  0 раз

Полного источника не было: Никогда

 
   
 
 

lopster ®

Пол:
Не указан
Стаж:
3 месяца 11 дней
Сообщений:
612

Черные береты
Жанр: Боевик, приключения
Год выпуска: 1994
Продолжительность: 01:09:29
Режиссёр: Виктор Доценко
В ролях: Василий Шлыков, Надежда Бутырцева, Иван Мартынов, Сергей Гурьев, Владимир Яковлев, Игорь Ильин, Ментай Утепбергенов, Владимир Аникин, Руслан Хабиев, Игорь Муругов, Владимир Новиков, Виктория Азер, Нина Агапова, Владимир Нисков, Андрей Щербович-Вечер, Роман Цветов, Вячеслав Родин, Владимир Шевяков, Лидия Леликова
Описание: По мотивам повести Станислава Гагарина "Парни из морской пехоты". Действие фильма происходит в Севастополе в конце 80-х годов ХХ века. Морские пехотинцы - капитан Ячменев, Федор, Иван и Арвид - демобилизовались из армии. Прежде чем разъехаться по своим родным городам, четверо друзей решили совершить прогулку на теплоходе. Неожиданно гражданское судно захватили террористы, которые собрались переправить большую партию оружия за границу. Отлично подготовленные морские пехотинцы вступили в бой с целой бандой преступников...
Доп. информация:
Автор релиза -
Источник аудио и видео - моя запись с т/к Звезда



Сэмпл: https://yadi.sk/i/Zyfagzs13RS7RZ
Рекламы нет!
Качество видео: DVB
Формат видео: TS
Видео: MPEG-4, 720x576@1024x576 (16:9), 25.000 fps, 2666 kbps, 0.257 bit/pixel
Аудио: Русский MP2, 48000 Гц, 2ch, 192 kbps

MediaInfo

Общее
Идентификатор : 1 (0x1)
Полное имя : D:\Чёрные.Береты.1994.DVB.Звезда-ylnian.ts
Формат : MPEG-TS
Размер файла : 1,46 Гбайт
Продолжительность : 1 ч. 9 м.
Режим общего битрейта : Переменный
Общий поток : 3009 Кбит/сек
Видео
Идентификатор : 2071 (0x817)
Идентификатор меню : 2070 (0x816)
Формат : AVC
Формат/Информация : Advanced Video Codec
Профиль формата : Main@L3
Настройки формата : CABAC / 3 Ref Frames
Параметр CABAC формата : Да
Параметр RefFrames формата : 3 кадра
Параметр GOP формата : M=4, N=28
Идентификатор кодека : 27
Продолжительность : 1 ч. 9 м.
Битрейт : 2666 Кбит/сек
Ширина : 720 пикселей
Высота : 576 пикселей
Соотношение сторон : 16:9
Частота кадров : 25,000 кадров/сек
Стандарт вещания : Component
Цветовое пространство : YUV
Субдискретизация насыщенности : 4:2:0
Битовая глубина : 8 бит
Тип развёртки : Чересстрочная
Метод сохранения типа развёртки : Раздельные поля
Порядок развёртки : Верхнее поле первое
Бит/(Пиксели*Кадры) : 0.257
Размер потока : 1,29 Гбайт (89%)
Цветовой диапазон : Limited
Основные цвета : BT.601 PAL
Характеристики трансфера : BT.470 System B, BT.470 System G
Коэффициенты матрицы : BT.470 System B, BT.470 System G
Аудио
Идентификатор : 2072 (0x818)
Идентификатор меню : 2070 (0x816)
Формат : MPEG Audio
Версия формата : Version 1
Профиль формата : Layer 2
Идентификатор кодека : 3
Продолжительность : 1 ч. 9 м.
Вид битрейта : Постоянный
Битрейт : 192 Кбит/сек
Каналы : 2 канала
Частота : 48,0 КГц
Частота кадров : 41,667 кадра/сек (1152 SPF)
Метод сжатия : С потерями
Размер потока : 95,4 Мбайт (6%)
Язык : Russian

Сравнение

Сравнение скриншотов с DVB 7 канал - http://screenshotcomparison.com/comparison/128972 - в моём релизе больше полезная площадь кадра, лучше качество
DVB 7 канал --->>> DVB т/к Звезда
--->>>
--->>>
--->>>
--->>>
--->>>

Скриншоты

[cybertorrent.ru].t488.torrent 
Торрент: Зарегистрирован [ 2018-02-15 15:48 ] · CD2822FAF7FDE393A1CA6B6F3837492204D45392

Скачать .torrent

Скачать

15 KB

Статус: проверено
Скачан: 0 раз
Размер: 1,46 GB
Профиль [ЛС]
Показать сообщения:    

Текущее время: 26-Май 15:27

Часовой пояс: UTC ± 0



Вы не можете начинать темы
Вы не можете отвечать на сообщения
Вы не можете редактировать свои сообщения
Вы не можете удалять свои сообщения
Вы не можете голосовать в опросах
Вы не можете прикреплять файлы к сообщениям
Вы можете скачивать файлы