Статистика раздачи
Размер:  7,32 GB   |    Зарегистрирован:  5 месяцев 21 день   |    Скачан:  0 раз

Полного источника не было: Никогда

 
     
 
 

ondreyko ®

Пол:
Не указан
Стаж:
9 месяцев 30 дней
Сообщений:
65

Последняя фантазия XIV: Отец света / Fainaru fantajî XIV: Hikari no otousan / Final Fantasy XIV: Dad of light
Страна: Japan
Год выпуска: 2017
Жанр: Drama, Family
Продолжительность: 8 серий по 24 мин
Режиссер: Teruo Noguchi, Kiyoshi Yamamoto
В ролях: Yudai Chiba - Akio
Ren Osugi - Hakutaro
Mako Ishino - Mother
Fumika Baba
Hatsunori Hasegawa
Перевод: Двухголосая озвучка
Автор перевода: East Dream
Описание: Сериал, основанный на реальной истории, о том, как отец и сын налаживают свои отношения с помощью ролевой онлайн игры Final Fantasy XIV.
Сэмпл: http://multi-up.com/1234766
Неотключаемые субтитры: Без хардсаба
Русские субтитры: Нет
Оригинальная аудиодорожка: Есть
Качество видео: HDTVRip
Разрешение: 1080p
Формат: MP4
Видео: AVC, 1920x1080, 6 357 kb/s, 23.976 fps
Аудио: AAC LC, 192 kb/s, 44.1 kHz, 2 ch

Технические данные

General
Формат : MPEG-4
Профиль формата : Base Media
Идентификатор кодека : isom (isom/iso2/avc1/mp41)
Размер файла : 1.07 GiB
Продолжительность : 24 min 2 s
Режим общего битрейта : Variable
Общий поток : 6 357 kb/s
Программа кодирования : Lavf57.83.100
Video
Идентификатор : 1
Формат : AVC
Формат/Информация : Advanced Video Codec
Профиль формата : Main@L4
Настройки формата : CABAC / 3 Ref Frames
Параметр CABAC формата : Yes
Параметр RefFrames формата : 3 frames
Идентификатор кодека : avc1
Идентификатор кодека/Информация : Advanced Video Coding
Продолжительность : 24 min 2 s
Вид битрейта : Variable
Битрейт : 6 190 kb/s
Максимальный битрейт : 9 285 kb/s
Ширина : 1 920 pixels
Высота : 1 080 pixels
Соотношение сторон : 16:9
Режим частоты кадров : Variable
Частота кадров : 23.976 (24000/1001) FPS
Минимальная частота кадров : 23.810 FPS
Максимальная частота кадров : 24.390 FPS
Цветовое пространство : YUV
Субдискретизация насыщенности : 4:2:0
Битовая глубина : 8 bits
Тип развёртки : Progressive
Бит/(Пиксели*Кадры) : 0.125
Размер потока : 1.03 GiB (97%)
Библиотека кодирования : x264 core 118
Настройки программы : cabac=1 / ref=3 / deblock=1:0:0 / analyse=0x1:0x111 / me=umh / subme=10 / psy=1 / psy_rd=1.00:0.00 / mixed_ref=1 / me_range=24 / chroma_me=1 / trellis=2 / 8x8dct=0 / cqm=0 / deadzone=21,11 / fast_pskip=1 / chroma_qp_offset=-2 / threads=8 / sliced_threads=0 / nr=0 / decimate=1 / interlaced=0 / bluray_compat=0 / constrained_intra=0 / bframes=2 / b_pyramid=0 / b_adapt=2 / b_bias=0 / direct=3 / weightb=1 / open_gop=0 / weightp=2 / keyint=48 / keyint_min=25 / scenecut=0 / intra_refresh=0 / rc_lookahead=0 / rc=2pass / mbtree=1 / bitrate=6190 / ratetol=1.0 / qcomp=0.50 / qpmin=6 / qpmax=51 / qpstep=4 / cplxblur=20.0 / qblur=0.5 / vbv_maxrate=9285 / vbv_bufsize=12380 / nal_hrd=vbr / ip_ratio=1.40 / aq=1:1.00
Codec configuration box : avcC
Audio
Идентификатор : 2
Формат : AAC LC
Формат/Информация : Advanced Audio Codec Low Complexity
Идентификатор кодека : mp4a-40-2
Продолжительность : 23 min 51 s
Вид битрейта : Constant
Битрейт : 192 kb/s
Каналы : 2 channels
ChannelLayout : L R
Частота : 44.1 kHz
Частота кадров : 43.066 FPS (1024 SPF)
Метод сжатия : Lossy
Размер потока : 32.8 MiB (3%)
Default : Yes
AlternateGroup/String : 1
[cybertorrent.ru].t4887.torrent 
Торрент: Зарегистрирован [ 2019-08-02 16:01 ] · 457AC46B3A54D60051C06D28E28F8C5565ED1B19

Скачать .torrent

Скачать

147 KB

Статус: проверено
Скачан: 0 раз
Размер: 7,32 GB
terms.php
Профиль [ЛС]
Показать сообщения:    

Текущее время: 24-Янв 09:06

Часовой пояс: UTC ± 0



Вы не можете начинать темы
Вы не можете отвечать на сообщения
Вы не можете редактировать свои сообщения
Вы не можете удалять свои сообщения
Вы не можете голосовать в опросах
Вы не можете прикреплять файлы к сообщениям
Вы можете скачивать файлы