Статистика раздачи
Размер:  1,09 GB   |    Зарегистрирован:  3 месяца 8 дней   |    Скачан:  0 раз

Полного источника не было: Никогда

 
   
 
 

lopster ®

Пол:
Не указан
Стаж:
3 месяца 8 дней
Сообщений:
612

Черные береты
Жанр: Боевик, приключения
Год выпуска: 1994
Продолжительность: 01:09:29
Режиссёр: Виктор Доценко
В ролях: Василий Шлыков, Надежда Бутырцева, Иван Мартынов, Сергей Гурьев, Владимир Яковлев, Игорь Ильин, Ментай Утепбергенов, Владимир Аникин, Руслан Хабиев, Игорь Муругов, Владимир Новиков, Виктория Азер, Нина Агапова, Владимир Нисков, Андрей Щербович-Вечер, Роман Цветов, Вячеслав Родин, Владимир Шевяков, Лидия Леликова
Описание: По мотивам повести Станислава Гагарина "Парни из морской пехоты". Действие фильма происходит в Севастополе в конце 80-х годов ХХ века. Морские пехотинцы - капитан Ячменев, Федор, Иван и Арвид - демобилизовались из армии. Прежде чем разъехаться по своим родным городам, четверо друзей решили совершить прогулку на теплоходе. Неожиданно гражданское судно захватили террористы, которые собрались переправить большую партию оружия за границу. Отлично подготовленные морские пехотинцы вступили в бой с целой бандой преступников...
Доп. информация:
Автор релиза -
Источник аудио и видео для рипа - моя запись с т/к Звезда - http://cybertorrent.ru/viewtopic.php?t=5506746



Сэмпл: https://yadi.sk/i/qT6grYNM3RRzaZ
Рекламы нет!
Качество видео: SATRip
Формат видео: AVI
Видео: XviD, 704x448 (16:10), 25.000 fps, 2037 kbps, 0.258 bit/pixel
Аудио: Русский AC3, 48000 Гц, 2ch, 192 kbps

MediaInfo

Общее
Полное имя : D:\Чёрные.Береты.1994.SATRip.Звезда-ylnian.avi
Формат : AVI
Формат/Информация : Audio Video Interleave
Размер файла : 1,09 Гбайт
Продолжительность : 1 ч. 9 м.
Общий поток : 2239 Кбит/сек
Программа кодирования : VirtualDubMod 1.5.10.2 (build 2540/release)
Библиотека кодирования : VirtualDubMod build 2540/release
Видео
Идентификатор : 0
Формат : MPEG-4 Visual
Профиль формата : Advanced Simple@L5
Настройки формата : BVOP1
Параметр BVOP формата : 1
Параметр QPel формата : Нет
Параметр GMC формата : Без точки перехода
Параметр матрицы формата : Default (MPEG)
Идентификатор кодека : XVID
Идентификатор кодека/Подсказка : XviD
Продолжительность : 1 ч. 9 м.
Битрейт : 2037 Кбит/сек
Ширина : 704 пикселя
Высота : 448 пикселей
Соотношение сторон : 16:10
Частота кадров : 25,000 кадров/сек
Цветовое пространство : YUV
Субдискретизация насыщенности : 4:2:0
Битовая глубина : 8 бит
Тип развёртки : Прогрессивная
Метод сжатия : С потерями
Бит/(Пиксели*Кадры) : 0.258
Размер потока : 1012 Мбайт (91%)
Библиотека кодирования : XviD 67
Аудио
Идентификатор : 1
Формат : AC-3
Формат/Информация : Audio Coding 3
Идентификатор кодека : 2000
Продолжительность : 1 ч. 9 м.
Вид битрейта : Постоянный
Битрейт : 192 Кбит/сек
Каналы : 2 канала
Расположение каналов : Front: L R
Частота : 48,0 КГц
Частота кадров : 31,250 кадров/сек (1536 SPF)
Битовая глубина : 16 бит
Метод сжатия : С потерями
Размер потока : 95,4 Мбайт (9%)
Выравнивание : Разделение по промежуткам
Продолжительность промежутка : 40 мс. (1,00 видеокадр)
Время предзагрузки промежутка : 500 мс.
ServiceKind/String : Complete Main

Сравнение

Сравнение скриншотов с SATRip 7 канал - http://screenshotcomparison.com/comparison/128993 - в моём релизе больше полезная площадь кадра, лучше качество
[cybertorrent.ru].t489.torrent 
Торрент: Зарегистрирован [ 2018-02-15 15:48 ] · 1CE4311C236D0C383AC1D4FD4291AC7736111DE9

Скачать .torrent

Скачать

11 KB

Статус: проверено
Скачан: 0 раз
Размер: 1,09 GB
Профиль [ЛС]
Показать сообщения:    

Текущее время: 23-Май 16:39

Часовой пояс: UTC ± 0



Вы не можете начинать темы
Вы не можете отвечать на сообщения
Вы не можете редактировать свои сообщения
Вы не можете удалять свои сообщения
Вы не можете голосовать в опросах
Вы не можете прикреплять файлы к сообщениям
Вы можете скачивать файлы