Статистика раздачи
Размер:  1,37 GB   |    Зарегистрирован:  3 месяца 9 дней   |    Скачан:  0 раз

Полного источника не было: Никогда

 
   
 
 

lopster ®

Пол:
Не указан
Стаж:
3 месяца 9 дней
Сообщений:
612

Поводырь
Год выпуска: 2007
Жанр: Боевик, драма
Продолжительность: 01:34:31
Режиссер: Александр Хван
В ролях: Игорь Лифанов, Владимир Головин, Лариса Малеванная, Оксана Базилевич, Евгений Меркурьев
Описание: Павел Шнырев – киллер. Он профессионал. У него много врагов и масса проблем. Он мечется, он загнан... Мать Павла попадает в больницу, от нее он узнает, что его отец жив. Павел едет в далекую деревню и находит отца. Отец Павла давно ослеп, но это не мешает ему жить. С ним всегда рядом верный помощник – собака-поводырь. Другая жизнь открывается Павлу - деревенские жители, их простой быт, заботы отца. Приезжает и мать, преследуемая врагами Павла, чтобы забрать сына в тихое место "отсидеться". Но не уходит Павел от старика, как слепой, почувствовав в нем поводыря. Казалось бы, теперь все будет иначе, чем в прошлом...
Все раздачи фильма: Поводырь
Скачать сэмпл
Релиз от:
Качество: DVDRip
Формат: AVI
Видео кодек: XviD
Аудио кодек: AC3
Видео: 720x416, 1811 kb/s, 25.000 fps, 0.242 bits/pixel
Аудио: ac3 (0x2000) Dolby Laboratories, Inc, 256 kb/s (128/ch, stereo) CBR, 48000 Hz

MI

Код:Общее
Полное имя : C:\otkat\Видео\Поводырь\Povodyr_[torrents.ru].torrent.avi
Формат : AVI
Формат/Информация : Audio Video Interleave
Размер файла : 1,37 Гбайт
Продолжительность : 1 ч. 34 м.
Общий поток : 2072 Кбит/сек
Программа кодирования : VirtualDubMod 1.5.4.1 (build 2178/release)
Библиотека кодирования : VirtualDubMod build 2178/release
Видео
Идентификатор : 0
Формат : MPEG-4 Visual
Профиль формата : Advanced Simple@L5
Параметр BVOP формата : Нет
Параметр QPel формата : Нет
Параметр GMC формата : Без точки перехода
Параметр матрицы формата : Выборочная
Идентификатор кодека : XVID
Идентификатор кодека/Подсказка : XviD
Продолжительность : 1 ч. 34 м.
Битрейт : 1809 Кбит/сек
Ширина : 720 пикселей
Высота : 416 пикселей
Соотношение сторон : 1,731
Частота кадров : 25,000 кадров/сек
Цветовое пространство : YUV
Субдискретизация насыщенности : 4:2:0
Битовая глубина : 8 бит
Тип развёртки : Прогрессивная
Метод сжатия : С потерями
Бит/(Пиксели*Кадры) : 0.242
Размер потока : 1,19 Гбайт (87%)
Библиотека кодирования : XviD 1.2.0.dev47 (UTC 2006-11-01)
Аудио
Идентификатор : 1
Формат : AC-3
Формат/Информация : Audio Coding 3
Расширение режима : CM (complete main)
Параметр Endianness формата : Big
Идентификатор кодека : 2000
Продолжительность : 1 ч. 34 м.
Вид битрейта : Постоянный
Битрейт : 256 Кбит/сек
Каналы : 2 канала
Расположение каналов : Front: L R
Частота : 48,0 КГц
Частота кадров : 31,250 кадров/сек (1536 spf)
Метод сжатия : С потерями
Размер потока : 173 Мбайт (12%)
Выравнивание : Разделение по промежуткам
Продолжительность промежутка : 96 мс. (2,40 видеокадра)
Время предзагрузки промежутка : 96 мс.
Язык : Russian

Скриншоты


[cybertorrent.ru].t49.torrent 
Торрент: Зарегистрирован [ 2018-02-15 13:57 ] · 1EF50527FE0634563A9EAE226878288693FFEC65

Скачать .torrent

Скачать

14 KB

Статус: проверено
Скачан: 0 раз
Размер: 1,37 GB
Профиль [ЛС]
Показать сообщения:    

Текущее время: 25-Май 08:54

Часовой пояс: UTC ± 0



Вы не можете начинать темы
Вы не можете отвечать на сообщения
Вы не можете редактировать свои сообщения
Вы не можете удалять свои сообщения
Вы не можете голосовать в опросах
Вы не можете прикреплять файлы к сообщениям
Вы можете скачивать файлы