Статистика раздачи
Размер:  1,38 GB   |    Зарегистрирован:  3 месяца 6 дней   |    Скачан:  0 раз

Полного источника не было: Никогда

 
   
 
 

lopster ®

Пол:
Не указан
Стаж:
3 месяца 6 дней
Сообщений:
612

Спарта
Жанр: Боевик, драма, спорт
Год выпуска: 2016
Продолжительность: 01:22:21
Режиссёр: Николай Кудряшов
В ролях: Денис Никифоров, Ян Цапник, Владимир Епифанцев, Максим Коновалов, Наталия Власова, Николай Кудряшов, Андрей Семенов, Кристина Нуар, Михаил Малютин, Александр Шлеменко, Андрей Сычев, Сергей Воробьёв, Кирилл Полухин, Олег Гаас, Ольга Павлюкова, Михаил Грубов, Яна Енжаева, Александр Мосин, Виктор Смоляр, Юлия Лаврова, Ева Ганту
Описание: Прямоугольный ринг и две команды бойцов друг напротив друга. Когда силы кончаются, товарища сменяет тот, кто за спиной… Это — Спарта! Новый зрелищный вид единоборств. «Спарта» для бывшего чемпиона по боям без правил Николая — единственная возможность вернуться в большой спорт и решить все проблемы, которые свалились на него три года назад: драка за честь подруги и тюрьма, предательство возлюбленной и отказ тренера в возвращении в команду. Вместе с верными друзьями спортсмен готов бросить вызов всему миру, и ставкой в бои станет его будущая жизнь.
Доп. информация:
Автор релиза -
Источник аудио и видео для рипа - HDTV 1080i TS - моя запись с канала Наш Детектив HD - http://cybertorrent.ru/viewtopic.php?t=5507777



Сэмпл: https://yadi.sk/i/0er4-lJc3RWJoN
Рекламы нет!
Качество видео: HDTVRip
Формат видео: AVI
Видео: XviD, 720x320 (2,25:1), 25.000 fps, 1936 kbps, 0.336 bit/pixel
Аудио: Русский AC3, 48000 Гц, 6ch, 448 kbps

MediaInfo

Общее
Полное имя : D:\Спарта.2016.HDTVRip-ylnian.avi
Формат : AVI
Формат/Информация : Audio Video Interleave
Размер файла : 1,38 Гбайт
Продолжительность : 1 ч. 22 м.
Общий поток : 2394 Кбит/сек
Программа кодирования : VirtualDubMod 1.5.10.2 (build 2540/release)
Библиотека кодирования : VirtualDubMod build 2540/release
Видео
Идентификатор : 0
Формат : MPEG-4 Visual
Профиль формата : Advanced Simple@L5
Настройки формата : BVOP1
Параметр BVOP формата : 1
Параметр QPel формата : Нет
Параметр GMC формата : Без точки перехода
Параметр матрицы формата : Default (MPEG)
Идентификатор кодека : XVID
Идентификатор кодека/Подсказка : XviD
Продолжительность : 1 ч. 22 м.
Битрейт : 1936 Кбит/сек
Ширина : 720 пикселей
Высота : 320 пикселей
Соотношение сторон : 2,25:1
Частота кадров : 25,000 кадров/сек
Цветовое пространство : YUV
Субдискретизация насыщенности : 4:2:0
Битовая глубина : 8 бит
Тип развёртки : Прогрессивная
Метод сжатия : С потерями
Бит/(Пиксели*Кадры) : 0.336
Размер потока : 1,11 Гбайт (81%)
Библиотека кодирования : XviD 67
Аудио
Идентификатор : 1
Формат : AC-3
Формат/Информация : Audio Coding 3
Идентификатор кодека : 2000
Продолжительность : 1 ч. 22 м.
Вид битрейта : Постоянный
Битрейт : 448 Кбит/сек
Каналы : 6 каналов
Расположение каналов : Front: L C R, Side: L R, LFE
Частота : 48,0 КГц
Частота кадров : 31,250 кадров/сек (1536 SPF)
Битовая глубина : 16 бит
Метод сжатия : С потерями
Размер потока : 264 Мбайт (19%)
Выравнивание : Разделение по промежуткам
Продолжительность промежутка : 40 мс. (1,00 видеокадр)
Время предзагрузки промежутка : 500 мс.
ServiceKind/String : Complete Main

Сравнение

Сравнение скриншотов с WEB-DLRip - http://screenshotcomparison.com/comparison/129248 - в моём релизе больше полезная площадь кадра сверху и снизу, лучше качество картинки, более насыщенные и естественные цвета
[cybertorrent.ru].t490.torrent 
Торрент: Зарегистрирован [ 2018-02-15 15:48 ] · DDBAFB3B7DDF1DF509329E0795B1F6DBC2E83D68

Скачать .torrent

Скачать

14 KB

Статус: проверено
Скачан: 0 раз
Размер: 1,38 GB
Профиль [ЛС]
Показать сообщения:    

Текущее время: 22-Май 00:15

Часовой пояс: UTC ± 0



Вы не можете начинать темы
Вы не можете отвечать на сообщения
Вы не можете редактировать свои сообщения
Вы не можете удалять свои сообщения
Вы не можете голосовать в опросах
Вы не можете прикреплять файлы к сообщениям
Вы можете скачивать файлы