Статистика раздачи
Размер:  1,46 GB   |    Зарегистрирован:  3 месяца 7 дней   |    Скачан:  0 раз

Полного источника не было: Никогда

 
   
 
 

lopster ®

Пол:
Не указан
Стаж:
3 месяца 7 дней
Сообщений:
612

Жги!
Жанр: драма
Год выпуска: 2017
Продолжительность: 01:38:29
Режиссёр: Кирилл Плетнёв
В ролях: Инга Оболдина, Виктория Исакова, Анна Уколова, Владимир Ильин, Данил Стеклов, Никита Кологривый, Татьяна Догилева, Ольга Бузова, Александра Бортич, Екатерина Агеева

Описание: У каждого человека есть право на жизнь, свободу и стремление к счастью. Надсмотрщице в женской колонии выпадает шанс изменить свою судьбу, приняв участие в главном песенном шоу страны. Однако сильного голоса для этого недостаточно. Через множество комичных ситуаций и череду драматических событий героине предстоит заново найти себя. А единственным человеком, способный ей в этом помочь, оказывается одна из заключенных, в прошлом — певица. Честная и пронзительная история о том, что жизнь полна возможностей, но у каждой из них есть своя цена…

Sample
Качество видео: WEB-DLRip
Формат видео: AVI
Видео: 720x304 (2.37:1), 24 fps, XviD build 50 ~1724 kbps avg, 0.33 bit/pixel
Аудио: 48 kHz, AC3 Dolby Digital, 3/2 (L,C,R,l,r) + LFE ch, ~384 kbps

MediaInfo

General
Complete name : D:\Жги 2017 WEB-DLRip.avi
Format : AVI
Format/Info : Audio Video Interleave
File size : 1.46 GiB
Duration : 1h 38mn
Overall bit rate : 2 118 Kbps
Writing application : VirtualDubMod 1.5.10.2 (build 2540/release)
Writing library : VirtualDubMod build 2540/release
Video
ID : 0
Format : MPEG-4 Visual
Format profile : Advanced Simple@L5
Format settings, BVOP : 2
Format settings, QPel : No
Format settings, GMC : No warppoints
Format settings, Matrix : Default (MPEG)
Codec ID : XVID
Codec ID/Hint : XviD
Duration : 1h 38mn
Bit rate : 1 725 Kbps
Width : 720 pixels
Height : 304 pixels
Display aspect ratio : 2.35:1
Frame rate : 24.000 fps
Color space : YUV
Chroma subsampling : 4:2:0
Bit depth : 8 bits
Scan type : Progressive
Compression mode : Lossy
Bits/(Pixel*Frame) : 0.328
Stream size : 1.19 GiB (81%)
Writing library : XviD 1.2.1 (UTC 2008-12-04)
Audio
ID : 1
Format : AC-3
Format/Info : Audio Coding 3
Mode extension : CM (complete main)
Format settings, Endianness : Big
Codec ID : 2000
Duration : 1h 38mn
Bit rate mode : Constant
Bit rate : 384 Kbps
Channel count : 6 channels
Channel positions : Front: L C R, Side: L R, LFE
Sampling rate : 48.0 KHz
Bit depth : 16 bits
Compression mode : Lossy
Stream size : 270 MiB (18%)
Alignment : Split accross interleaves
Interleave, duration : 42 ms (1.00 video frame)
Interleave, preload duration : 500 ms

Скриншот c названием фильма

Скриншоты


[cybertorrent.ru].t491.torrent 
Торрент: Зарегистрирован [ 2018-02-15 15:48 ] · 8D647D88DC0C59345951F055021D5A198E815837

Скачать .torrent

Скачать

15 KB

Статус: проверено
Скачан: 0 раз
Размер: 1,46 GB
Профиль [ЛС]
Показать сообщения:    

Текущее время: 22-Май 23:00

Часовой пояс: UTC ± 0



Вы не можете начинать темы
Вы не можете отвечать на сообщения
Вы не можете редактировать свои сообщения
Вы не можете удалять свои сообщения
Вы не можете голосовать в опросах
Вы не можете прикреплять файлы к сообщениям
Вы можете скачивать файлы