Статистика раздачи
Размер:  743 MB   |    Зарегистрирован:  3 месяца 7 дней   |    Скачан:  0 раз

Полного источника не было: Никогда

 
   
 
 

lopster ®

Пол:
Не указан
Стаж:
3 месяца 7 дней
Сообщений:
612

Жги!
Выпущено: Россия
Жанр: драма
Год выпуска: 2017
Продолжительность: 01:38:29-Режиссёр: Кирилл Плетнёв-В ролях: Инга Оболдина, Виктория Исакова, Анна Уколова, Владимир Ильин, Данил Стеклов, Никита Кологривый, Татьяна Догилева, Ольга Бузова, Александра Бортич, Екатерина Агеева-Описание: У каждого человека есть право на жизнь, свободу и стремление к счастью. Надсмотрщице в женской колонии выпадает шанс изменить свою судьбу, приняв участие в главном песенном шоу страны. Однако сильного голоса для этого недостаточно. Через множество комичных ситуаций и череду драматических событий героине предстоит заново найти себя. А единственным человеком, способный ей в этом помочь, оказывается одна из заключенных, в прошлом — певица. Честная и пронзительная история о том, что жизнь полна возможностей, но у каждой из них есть своя цена…- -Качество видео: WEB-DLRip
Формат видео: AVI
Видео: 688x288 (2.39:1), 24.000 fps, XviD build 73 ~917 kbps avg, 0.19 bit/pixel
Аудио: 48 kHz, MPEG Layer 3, 2 ch, ~128.00 kbps avg-Сэмпл-

MediaInfo

Код:Format : AVI
Format/Info : Audio Video Interleave
File size : 743 MiB
Duration : 1 h 38 min
Overall bit rate : 1 055 kb/s
Writing application : VirtualDubMod 1.5.10.3 | www.virtualdub-fr.org || (build 2550/release)
Writing library : VirtualDubMod build 2550/release
Video
ID : 0
Format : MPEG-4 Visual
Format profile : Advanced Simple@L5
Format settings : BVOP1 / Custom Matrix
Format settings, BVOP : 1
Format settings, QPel : No
Format settings, GMC : No warppoints
Format settings, Matrix : Custom
Codec ID : XVID
Codec ID/Hint : XviD
Duration : 1 h 38 min
Bit rate : 918 kb/s
Width : 688 pixels
Height : 288 pixels
Display aspect ratio : 2.40:1
Frame rate : 24.000 FPS
Color space : YUV
Chroma subsampling : 4:2:0
Bit depth : 8 bits
Scan type : Progressive
Compression mode : Lossy
Bits/(Pixel*Frame) : 0.193
Stream size : 646 MiB (87%)
Writing library : XviD 73
Audio
ID : 1
Format : MPEG Audio
Format version : Version 1
Format profile : Layer 3
Codec ID : 55
Codec ID/Hint : MP3
Duration : 1 h 38 min
Bit rate mode : Constant
Bit rate : 128 kb/s
Channel(s) : 2 channels
Sampling rate : 48.0 kHz
Frame rate : 41.667 FPS (1152 SPF)
Compression mode : Lossy
Stream size : 90.2 MiB (12%)
Alignment : Aligned on interleaves
Interleave, duration : 42 ms (1.00 video frame)
Interleave, preload duratio : 504 ms
Writing library : LAME3.99r
Encoding settings : -m s -V 4 -q 2 -lowpass 17 -b 128

Скриншоты

[cybertorrent.ru].t492.torrent 
Торрент: Зарегистрирован [ 2018-02-15 15:48 ] · E901F5C91F49A9B440D2D6A025228E16C2D04E5D

Скачать .torrent

Скачать

15 KB

Статус: проверено
Скачан: 0 раз
Размер: 743 MB
Профиль [ЛС]
Показать сообщения:    

Текущее время: 23-Май 07:12

Часовой пояс: UTC ± 0



Вы не можете начинать темы
Вы не можете отвечать на сообщения
Вы не можете редактировать свои сообщения
Вы не можете удалять свои сообщения
Вы не можете голосовать в опросах
Вы не можете прикреплять файлы к сообщениям
Вы можете скачивать файлы