Статистика раздачи
Размер:  38,02 GB   |    Зарегистрирован:  5 месяцев 24 дня   |    Скачан:  0 раз

Полного источника не было: Никогда

 
     
 
 

Гость ®

Пол:
Не указан

Императрица Ки / Ki Hwanghoo / Qi Empress
Страна: Корея
Год выпуска: 2013
Жанр: История, романтика, экшн, политика, драма
Продолжительность: 51 х ~ 00:59:43
Режиссер: Ли Сонджун, Хан Хи
В ролях: Ха Чжи Вон, Чу Чжин Мо, Чжи Чан Ук, Чха До Джин, Сим И Ён, Ким Хён Бом, Хан Хе Рин, Пэк Чжин Хи, Квон О Чжун, Чо Джэ Юн, Ким Мён Гук
Перевод: Профессиональный (многоголосый закадровый) Мобильное Телевидение
Описание: «Императрица Ки» – историческая сага о жизни Ки Хван Ку, супруги Тогон-Тэмура – последнего императора монгольской империи Юань. Борьба двух сильных личностей за сердце главной героини, сложности взаимоотношений, предательства, месть, любовь и страсть – одна из самых эмоциональных дорам наверняка понравится всем, кто любит исторические сериалы. В юности Ки Хван Ку потеряла отца и мать, была разлучена с любимым человеком, у нее отняли ребенка. Какие ещё испытания ждут главную героиню? Каким был ее путь к правлению?
Доп.информация:
Сериал озвучен компанией Мобильное Телевидение по заказу телеканала Дорама
Сэмпл: http://multi-up.com/1237697
Неотключаемые субтитры: Без хардсаба
Русские субтитры: Нет
Оригинальная аудиодорожка: Нет
Качество видео: WEBRip
Разрешение: 400p
Формат: AVI
Видео: XviD, 720x400 (16:9), 25 fps, ~ 1600 Kbps
Аудио: AC3, 48.0 KHz, 2 ch, 192 Kbps
Реклама: Отсутствует

Знаете ли вы, что...

- Мировая премьера сериала состоялась 28 октября 2013 года на корейском телеканале MBC.
- Первоначальное корейское название сериала "Hwatu", что в переводе на русский обозначает "Цветочные карты".
- Съемки сериала частично проходили на Hengdian World Studios - киностудии, расположенной в китайском городе Ханьдянь провинции Чжэцзян. Данные съемки прошли с 12 по 23 октября 2013 года.
- Актриса Пэк Чин-хи получила награду в категории "Лучшая актриса" на церемонии вручения премии "BaekSang Arts Awards 2014".
- Сериал получил семь наград на премия "MBC Drama Awards" 2013 года.

MediaInfo

Общее
Полное имя : G:\Imperatritsa.Ki.2013.MVO.WEBRip\Imperatritsa.Ki.e01.2013.MVO.WEBRip.avi
Формат : AVI
Формат/Информация : Audio Video Interleave
Размер файла : 763 Мбайт
Продолжительность : 59 м. 14 с.
Общий поток : 1802 Кбит/сек
Программа кодирования : VirtualDubMod 1.5.10.3 | www.virtualdub-fr.org || (build 2550/release)
Библиотека кодирования : VirtualDubMod build 2550/release
Видео
Идентификатор : 0
Формат : MPEG-4 Visual
Профиль формата : Advanced Simple@L5
Параметр BVOP формата : 2
Параметр QPel формата : Нет
Параметр GMC формата : Без точки перехода
Параметр матрицы формата : Выборочная
Идентификатор кодека : XVID
Идентификатор кодека/Подсказка : XviD
Продолжительность : 59 м. 14 с.
Битрейт : 1600 Кбит/сек
Ширина : 720 пикселей
Высота : 400 пикселей
Соотношение сторон : 16:9
Частота кадров : 25,000 кадров/сек
Цветовое пространство : YUV
Субдискретизация насыщенности : 4:2:0
Битовая глубина : 8 бит
Тип развёртки : Прогрессивная
Метод сжатия : С потерями
Бит/(Пиксели*Кадры) : 0.222
Размер потока : 678 Мбайт (89%)
Библиотека кодирования : XviD 73
Аудио
Идентификатор : 1
Формат : AC-3
Формат/Информация : Audio Coding 3
Расширение режима : CM (complete main)
Параметр Endianness формата : Big
Идентификатор кодека : 2000
Продолжительность : 59 м. 14 с.
Вид битрейта : Постоянный
Битрейт : 192 Кбит/сек
Каналы : 2 канала
Расположение каналов : Front: L R
Частота : 48,0 КГц
Частота кадров : 31,250 кадров/сек (1536 spf)
Битовая глубина : 16 бит
Метод сжатия : С потерями
Размер потока : 81,3 Мбайт (11%)
Выравнивание : Разделение по промежуткам
Продолжительность промежутка : 40 мс. (1,00 видеокадр)
Время предзагрузки промежутка : 500 мс.

Скриншоты


[cybertorrent.ru].t4929.torrent 
Торрент: Зарегистрирован [ 2019-08-02 16:01 ] · F2EAED707FE8DB47719D96E958A7011D4EBAAE80

Скачать .torrent

Скачать

194 KB

Статус: проверено
Скачан: 0 раз
Размер: 38,02 GB
terms.php
Показать сообщения:    

Текущее время: 27-Янв 14:42

Часовой пояс: UTC ± 0



Вы не можете начинать темы
Вы не можете отвечать на сообщения
Вы не можете редактировать свои сообщения
Вы не можете удалять свои сообщения
Вы не можете голосовать в опросах
Вы не можете прикреплять файлы к сообщениям
Вы можете скачивать файлы