Статистика раздачи
Размер:  1,45 GB   |    Зарегистрирован:  3 месяца 8 дней   |    Скачан:  0 раз
Сидов:  47  [  0 KB/s  ]   Личеров:  5  [  0 KB/s  ]  
 
   
 
 

lopster ®

Пол:
Не указан
Стаж:
3 месяца 8 дней
Сообщений:
612

Война
Жанр: Боевик, драма
Год выпуска: 2002
Продолжительность: 01:59:51
Режиссёр: Алексей Балабанов
В ролях: Алексей Чадов, Иэн Келли, Ингеборга Дапкунайте, Сергей Бодров мл., Эвклид Кюрдзидис, Георгий Гургулия, Владимир Гостюхин, Бен Фостер, Юрий Степанов, Дэвид МакАллистер, Андрей Кормунин, Стив Джемисон, Лев Эренбург, Питер Викхэм, Станислав Стоцкий, Татьяна Пестова, Алексей Алексеев (II), Виктория Смирнова, Ольга Пастухова, Алексей Усольцев, Ирина Соколова (II), Алексей Болкисов, Елена Андреева, Андрей Гульнев, Виктор Смирнов (I), Ирина Малиновская, Сергей Шемаркин, Татьяна Леднёва, Геннадий Баширов, Дуня Замахина, Тимур Ибрагимов, Кюри Пучаев, Казбек Багаев, Заза Багаев, Лаврентий Бедоев, Сослан Сланов, Владимир Доев, Антон Тогоев, Аслан Мечукаев, Тобин Обер, Руслан Барсуков, Керим Ногеров, Алан Царикаев
Описание: Аслан Гугаев, командир отряда чеченских боевиков, отпускает двоих пленников. Русского солдата Ваню Ермакова — потому что он не контрактник, а призывник. И англичанина Джона Бойла — потому что он должен собрать два миллиона фунтов стерлингов и привезти деньги Гугаеву в качестве выкупа за свою невесту Маргарет. Маргарет остается у Аслана. Так же, как и капитан российской армии Медведев… За отведенные ему два месяца Джон не находит нужную сумму и не находит поддержки у британских властей, зато, вернувшись в Россию, находит Ваню Ермакова, живущего в Тобольске. Джон и Ваня опять едут в Чечню. Чтобы освободить английскую девушку Маргарет и русского капитана Медведева…
Доп. информация:
Автор релиза -
Источник аудио и видео для рипа - HDTV 1080i TS - моя запись с канала Наш Детектив HD - http://cybertorrent.ru/viewtopic.php?t=5509576



Сэмпл: https://yadi.sk/i/bHNppH4B3RdqhL
Рекламы нет!
Качество видео: HDTVRip
Формат видео: AVI
Видео: XviD, 720x400 (16:9), 25.000 fps, 1280 kbps, 0.178 bit/pixel
Аудио: Русский AC3, 48000 Гц, 6ch, 448 kbps

MediaInfo

Общее
Полное имя : D:\Война.2002.HDTVRip-ylnian.avi
Формат : AVI
Формат/Информация : Audio Video Interleave
Размер файла : 1,45 Гбайт
Продолжительность : 1 ч. 59 м.
Общий поток : 1738 Кбит/сек
Программа кодирования : VirtualDubMod 1.5.10.2 (build 2540/release)
Библиотека кодирования : VirtualDubMod build 2540/release
Видео
Идентификатор : 0
Формат : MPEG-4 Visual
Профиль формата : Advanced Simple@L5
Настройки формата : BVOP1
Параметр BVOP формата : 1
Параметр QPel формата : Нет
Параметр GMC формата : Без точки перехода
Параметр матрицы формата : Default (MPEG)
Идентификатор кодека : XVID
Идентификатор кодека/Подсказка : XviD
Продолжительность : 1 ч. 59 м.
Битрейт : 1280 Кбит/сек
Ширина : 720 пикселей
Высота : 400 пикселей
Соотношение сторон : 16:9
Частота кадров : 25,000 кадров/сек
Цветовое пространство : YUV
Субдискретизация насыщенности : 4:2:0
Битовая глубина : 8 бит
Тип развёртки : Прогрессивная
Метод сжатия : С потерями
Бит/(Пиксели*Кадры) : 0.178
Размер потока : 1,07 Гбайт (74%)
Библиотека кодирования : XviD 67
Аудио
Идентификатор : 1
Формат : AC-3
Формат/Информация : Audio Coding 3
Идентификатор кодека : 2000
Продолжительность : 1 ч. 59 м.
Вид битрейта : Постоянный
Битрейт : 448 Кбит/сек
Каналы : 6 каналов
Расположение каналов : Front: L C R, Side: L R, LFE
Частота : 48,0 КГц
Частота кадров : 31,250 кадров/сек (1536 SPF)
Битовая глубина : 16 бит
Метод сжатия : С потерями
Размер потока : 384 Мбайт (26%)
Выравнивание : Разделение по промежуткам
Продолжительность промежутка : 40 мс. (1,00 видеокадр)
Время предзагрузки промежутка : 500 мс.
ServiceKind/String : Complete Main

Сравнение

Сравнение скриншотов с DVDRip - http://screenshotcomparison.com/comparison/129693 - в моём релизе выше чёткость и резкость
[cybertorrent.ru].t493.torrent 
Торрент: Зарегистрирован [ 2018-02-15 15:48 ] · F1564B072DB5DDAC3A09F0BB423B745B6B378E48

Скачать .torrent

Скачать

15 KB

Статус: проверено
Скачан: 0 раз
Размер: 1,45 GB
Профиль [ЛС]
Показать сообщения:    

Текущее время: 23-Май 16:42

Часовой пояс: UTC ± 0



Вы не можете начинать темы
Вы не можете отвечать на сообщения
Вы не можете редактировать свои сообщения
Вы не можете удалять свои сообщения
Вы не можете голосовать в опросах
Вы не можете прикреплять файлы к сообщениям
Вы можете скачивать файлы